<?xml version="1.0" standalone="no"?>
<!DOCTYPE svg PUBLIC "-//W3C//DTD SVG 1.1//EN" "http://www.w3.org/Graphics/SVG/1.1/DTD/svg11.dtd" >
<svg xmlns="http://www.w3.org/2000/svg">
<metadata>Generated by IcoMoon</metadata>
<defs>
<font id="Milingona" horiz-adv-x="1024">
<font-face units-per-em="1024" ascent="1024" descent="0" />
<missing-glyph horiz-adv-x="1024" />
<glyph unicode="&#x20;" horiz-adv-x="0" d="" />
<glyph unicode="&#xe000;" glyph-name="error" d="M554 470v256h-84v-256h84zM554 298v86h-84v-86h84zM512 938c236 0 426-190 426-426s-190-426-426-426-426 190-426 426 190 426 426 426z" />
<glyph unicode="&#xe001;" glyph-name="error_outline" d="M512 170c188 0 342 154 342 342s-154 342-342 342-342-154-342-342 154-342 342-342zM512 938c236 0 426-190 426-426s-190-426-426-426-426 190-426 426 190 426 426 426zM470 726h84v-256h-84v256zM470 384h84v-86h-84v86z" />
<glyph unicode="&#xe002;" glyph-name="warning" d="M554 426v172h-84v-172h84zM554 256v86h-84v-86h84zM42 128l470 810 470-810h-940z" />
<glyph unicode="&#xe003;" glyph-name="add_alert" d="M682 468v86h-128v128h-84v-128h-128v-86h128v-128h84v128h128zM806 306l90-90v-46h-768v46l90 90v248c0 138 96 256 226 286v30c0 38 30 68 68 68s68-30 68-68v-30c130-30 226-148 226-286v-248zM428 128h168c0-46-38-86-84-86s-84 40-84 86z" />
<glyph unicode="&#xe019;" glyph-name="album" d="M512 554c24 0 42-18 42-42s-18-42-42-42-42 18-42 42 18 42 42 42zM512 320c106 0 192 86 192 192s-86 192-192 192-192-86-192-192 86-192 192-192zM512 938c236 0 426-190 426-426s-190-426-426-426-426 190-426 426 190 426 426 426z" />
<glyph unicode="&#xe01b;" glyph-name="av_timer" d="M256 512c0 24 18 42 42 42s44-18 44-42-20-42-44-42-42 18-42 42zM768 512c0-24-18-42-42-42s-44 18-44 42 20 42 44 42 42-18 42-42zM470 896h42c212 0 384-172 384-384s-172-384-384-384-384 172-384 384c0 126 60 236 154 306v2l290-290-60-60-232 230c-42-52-66-116-66-188 0-166 132-298 298-298s298 132 298 298c0 150-112 276-256 296v-82h-84v170zM470 298c0 24 18 44 42 44s42-20 42-44-18-42-42-42-42 18-42 42z" />
<glyph unicode="&#xe01c;" glyph-name="closed_caption" d="M768 554v44c0 24-18 42-42 42h-128c-24 0-44-18-44-42v-172c0-24 20-42 44-42h128c24 0 42 18 42 42v44h-64v-22h-86v128h86v-22h64zM470 554v44c0 24-20 42-44 42h-128c-24 0-42-18-42-42v-172c0-24 18-42 42-42h128c24 0 44 18 44 42v44h-64v-22h-86v128h86v-22h64zM810 854c46 0 86-40 86-86v-512c0-46-40-86-86-86h-596c-48 0-86 40-86 86v512c0 46 38 86 86 86h596z" />
<glyph unicode="&#xe01d;" glyph-name="equalizer" d="M682 640h172v-470h-172v470zM170 170v342h172v-342h-172zM426 170v684h172v-684h-172z" />
<glyph unicode="&#xe01e;" glyph-name="explicit" d="M640 640v86h-256v-428h256v86h-170v86h170v84h-170v86h170zM810 896c46 0 86-40 86-86v-596c0-46-40-86-86-86h-596c-46 0-86 40-86 86v596c0 46 40 86 86 86h596z" />
<glyph unicode="&#xe01f;" glyph-name="fast_forward" d="M554 768l364-256-364-256v512zM170 256v512l364-256z" />
<glyph unicode="&#xe020;" glyph-name="fast_rewind" d="M490 512l364 256v-512zM470 256l-364 256 364 256v-512z" />
<glyph unicode="&#xe021;" glyph-name="games" d="M704 640h234v-256h-234l-128 128zM384 320l128 128 128-128v-234h-256v234zM320 640l128-128-128-128h-234v256h234zM640 704l-128-128-128 128v234h256v-234z" />
<glyph unicode="&#xe023;" glyph-name="hearing" d="M490 640c0 58 50 106 108 106s106-48 106-106-48-106-106-106-108 48-108 106zM326 912c-70-70-112-166-112-272s42-202 112-272l-60-60c-84 84-138 202-138 332s54 248 138 332zM726 170c46 0 84 40 84 86h86c0-94-76-170-170-170-24 0-48 4-70 14-58 30-92 74-118 152-14 42-38 62-72 88-38 28-84 64-122 134-30 54-46 112-46 166 0 168 132 298 300 298s298-130 298-298h-86c0 120-92 214-212 214s-214-94-214-214c0-40 12-86 34-126 30-56 66-82 100-108 40-30 80-62 102-128 22-64 42-84 72-100 8-4 22-8 34-8z" />
<glyph unicode="&#xe024;" glyph-name="high_quality" d="M618 448v128h86v-128h-86zM768 426v172c0 24-18 42-42 42h-128c-24 0-44-18-44-42v-172c0-24 20-42 44-42h32v-64h64v64h32c24 0 42 18 42 42zM470 384v256h-64v-106h-86v106h-64v-256h64v86h86v-86h64zM810 854c46 0 86-40 86-86v-512c0-46-40-86-86-86h-596c-48 0-86 40-86 86v512c0 46 38 86 86 86h596z" />
<glyph unicode="&#xe029;" glyph-name="mic" d="M738 554h72c0-146-116-266-256-286v-140h-84v140c-140 20-256 140-256 286h72c0-128 108-216 226-216s226 88 226 216zM512 426c-70 0-128 58-128 128v256c0 70 58 128 128 128s128-58 128-128v-256c0-70-58-128-128-128z" />
<glyph unicode="&#xe02a;" glyph-name="mic_none" d="M738 554h72c0-146-116-266-256-286v-140h-84v140c-140 20-256 140-256 286h72c0-128 108-216 226-216s226 88 226 216zM460 814v-264c0-28 24-50 52-50s50 22 50 50l2 264c0 28-24 52-52 52s-52-24-52-52zM512 426c-70 0-128 58-128 128v256c0 70 58 128 128 128s128-58 128-128v-256c0-70-58-128-128-128z" />
<glyph unicode="&#xe02b;" glyph-name="mic_off" d="M182 896l714-714-54-54-178 178c-32-20-72-32-110-38v-140h-84v140c-140 20-256 140-256 286h72c0-128 108-216 226-216 34 0 68 8 98 22l-70 70c-8-2-18-4-28-4-70 0-128 58-128 128v32l-256 256zM640 548l-256 254v8c0 70 58 128 128 128s128-58 128-128v-262zM810 554c0-50-14-98-38-140l-52 54c12 26 18 54 18 86h72z" />
<glyph unicode="&#xe02f;" glyph-name="library_books" d="M810 726v84h-426v-84h426zM640 384v86h-256v-86h256zM810 554v86h-426v-86h426zM854 938c46 0 84-38 84-84v-512c0-46-38-86-84-86h-512c-46 0-86 40-86 86v512c0 46 40 84 86 84h512zM170 768v-598h598v-84h-598c-46 0-84 38-84 84v598h84z" />
<glyph unicode="&#xe030;" glyph-name="library_music" d="M170 768v-598h598v-84h-598c-46 0-84 38-84 84v598h84zM768 726v84h-170v-234c-18 14-40 22-64 22-58 0-108-50-108-108s50-106 108-106 106 48 106 106v236h128zM854 938c46 0 84-38 84-84v-512c0-46-38-86-84-86h-512c-46 0-86 40-86 86v512c0 46 40 84 86 84h512z" />
<glyph unicode="&#xe031;" glyph-name="new_releases" d="M554 470v256h-84v-256h84zM554 298v86h-84v-86h84zM982 512l-104-118 14-158-154-34-80-136-146 62-146-62-80 134-154 36 14 158-104 118 104 120-14 156 154 34 80 136 146-62 146 62 80-136 154-34-14-158z" />
<glyph unicode="&#xe033;" glyph-name="not_interested" d="M782 302c46 58 72 132 72 210 0 188-154 342-342 342-78 0-152-26-210-72zM512 170c78 0 152 26 210 72l-480 480c-46-58-72-132-72-210 0-188 154-342 342-342zM512 938c236 0 426-190 426-426s-190-426-426-426-426 190-426 426 190 426 426 426z" />
<glyph unicode="&#xe034;" glyph-name="pause" d="M598 810h170v-596h-170v596zM256 214v596h170v-596h-170z" />
<glyph unicode="&#xe035;" glyph-name="pause_circle_filled" d="M640 342v340h-86v-340h86zM470 342v340h-86v-340h86zM512 938c236 0 426-190 426-426s-190-426-426-426-426 190-426 426 190 426 426 426z" />
<glyph unicode="&#xe036;" glyph-name="pause_circle_outline" d="M554 342v340h86v-340h-86zM512 170c188 0 342 154 342 342s-154 342-342 342-342-154-342-342 154-342 342-342zM512 938c236 0 426-190 426-426s-190-426-426-426-426 190-426 426 190 426 426 426zM384 342v340h86v-340h-86z" />
<glyph unicode="&#xe037;" glyph-name="play_arrow" d="M342 810l468-298-468-298v596z" />
<glyph unicode="&#xe038;" glyph-name="play_circle_filled" d="M426 320l256 192-256 192v-384zM512 938c236 0 426-190 426-426s-190-426-426-426-426 190-426 426 190 426 426 426z" />
<glyph unicode="&#xe039;" glyph-name="play_circle_outline" d="M512 170c188 0 342 154 342 342s-154 342-342 342-342-154-342-342 154-342 342-342zM512 938c236 0 426-190 426-426s-190-426-426-426-426 190-426 426 190 426 426 426zM426 320v384l256-192z" />
<glyph unicode="&#xe03b;" glyph-name="playlist_add" d="M86 342v84h340v-84h-340zM768 426h170v-84h-170v-172h-86v172h-170v84h170v172h86v-172zM598 768v-86h-512v86h512zM598 598v-86h-512v86h512z" />
<glyph unicode="&#xe03c;" glyph-name="queue" d="M810 554v86h-170v170h-86v-170h-170v-86h170v-170h86v170h170zM854 938c46 0 84-38 84-84v-512c0-46-38-86-84-86h-512c-46 0-86 40-86 86v512c0 46 40 84 86 84h512zM170 768v-598h598v-84h-598c-46 0-84 38-84 84v598h84z" />
<glyph unicode="&#xe03d;" glyph-name="queue_music" d="M726 768h212v-86h-128v-384c0-70-58-128-128-128s-128 58-128 128 58 128 128 128c14 0 30-4 44-8v350zM128 342v84h342v-84h-342zM640 598v-86h-512v86h512zM640 768v-86h-512v86h512z" />
<glyph unicode="&#xe03e;" glyph-name="radio" d="M854 512v170h-684v-170h512v86h86v-86h86zM298 170c70 0 128 58 128 128s-58 128-128 128-128-58-128-128 58-128 128-128zM138 762l540 220 28-72-352-142h500c48 0 84-38 84-86v-512c0-46-36-84-84-84h-684c-48 0-84 38-84 84v512c0 36 20 68 52 80z" />
<glyph unicode="&#xe03f;" glyph-name="recent_actors" d="M534 298v32c0 64-128 96-192 96s-192-32-192-96v-32h384zM342 694c-52 0-96-44-96-96s44-96 96-96 96 44 96 96-44 96-96 96zM598 810c24 0 42-18 42-42v-512c0-24-18-42-42-42h-512c-24 0-44 18-44 42v512c0 24 20 42 44 42h512zM726 214v596h84v-596h-84zM896 810h86v-596h-86v596z" />
<glyph unicode="&#xe040;" glyph-name="repeat" d="M726 298v172h84v-256h-512v-128l-170 170 170 170v-128h428zM298 726v-172h-84v256h512v128l170-170-170-170v128h-428z" />
<glyph unicode="&#xe041;" glyph-name="repeat_one" d="M554 384h-64v170h-64v44l86 42h42v-256zM726 298v172h84v-256h-512v-128l-170 170 170 170v-128h428zM298 726v-172h-84v256h512v128l170-170-170-170v128h-428z" />
<glyph unicode="&#xe042;" glyph-name="replay" d="M512 810c188 0 342-152 342-340s-154-342-342-342-342 154-342 342h86c0-142 114-256 256-256s256 114 256 256-114 256-256 256v-172l-214 214 214 214v-172z" />
<glyph unicode="&#xe043;" glyph-name="shuffle" d="M632 452l134-134 88 88v-236h-236l88 88-134 134zM618 854h236v-236l-88 88-536-536-60 60 536 536zM452 632l-60-60-222 222 60 60z" />
<glyph unicode="&#xe044;" glyph-name="skip_next" d="M682 768h86v-512h-86v512zM256 256v512l362-256z" />
<glyph unicode="&#xe045;" glyph-name="skip_previous" d="M406 512l362 256v-512zM256 768h86v-512h-86v512z" />
<glyph unicode="&#xe046;" glyph-name="snooze" d="M384 554v86h256v-76l-154-180h154v-86h-256v78l154 178h-154zM512 170c166 0 298 134 298 300s-132 298-298 298-298-132-298-298 132-300 298-300zM512 854c212 0 384-172 384-384s-172-384-384-384-384 172-384 384 172 384 384 384zM938 780l-54-66-196 166 54 64zM336 880l-196-164-54 64 196 164z" />
<glyph unicode="&#xe047;" glyph-name="stop" d="M256 768h512v-512h-512v512z" />
<glyph unicode="&#xe048;" glyph-name="subtitles" d="M854 426v86h-428v-86h428zM854 256v86h-172v-86h172zM598 256v86h-428v-86h428zM170 512v-86h172v86h-172zM854 854c46 0 84-40 84-86v-512c0-46-38-86-84-86h-684c-46 0-84 40-84 86v512c0 46 38 86 84 86h684z" />
<glyph unicode="&#xe049;" glyph-name="surround_sound" d="M512 598c46 0 86-40 86-86s-40-86-86-86-86 40-86 86 40 86 86 86zM754 270c66 66 100 154 100 242s-34 176-100 242l-62-62c50-50 76-114 76-180s-24-132-74-182zM512 342c94 0 170 76 170 170s-76 170-170 170-170-76-170-170 76-170 170-170zM332 332c-50 50-76 114-76 180s24 132 74 182l-60 60c-66-66-100-154-100-242s34-176 100-242zM854 854c46 0 84-40 84-86v-512c0-46-38-86-84-86h-684c-46 0-84 40-84 86v512c0 46 38 86 84 86h684z" />
<glyph unicode="&#xe04a;" glyph-name="video_library" d="M512 406l256 192-256 192v-384zM854 938c46 0 84-38 84-84v-512c0-46-38-86-84-86h-512c-46 0-86 40-86 86v512c0 46 40 84 86 84h512zM170 768v-598h598v-84h-598c-46 0-84 38-84 84v598h84z" />
<glyph unicode="&#xe04b;" glyph-name="videocam" d="M726 576l170 170v-468l-170 170v-150c0-24-20-42-44-42h-512c-24 0-42 18-42 42v428c0 24 18 42 42 42h512c24 0 44-18 44-42v-150z" />
<glyph unicode="&#xe04c;" glyph-name="videocam_off" d="M140 938l756-756-54-54-136 136c-6-4-16-8-24-8h-512c-24 0-42 18-42 42v428c0 24 18 42 42 42h32l-116 116zM896 746v-456l-478 478h264c24 0 44-18 44-42v-150z" />
<glyph unicode="&#xe04d;" glyph-name="volume_down" d="M214 640h170l214 214v-684l-214 214h-170v256zM790 512c0-76-44-140-108-172v344c64-32 108-96 108-172z" />
<glyph unicode="&#xe04e;" glyph-name="volume_mute" d="M298 640h172l212 214v-684l-212 214h-172v256z" />
<glyph unicode="&#xe04f;" glyph-name="volume_off" d="M512 854v-180l-90 90zM182 896l714-714-54-54-88 88c-46-36-98-64-156-78v88c36 10 68 28 96 50l-182 182v-288l-214 214h-170v256h202l-202 202zM810 512c0 136-88 250-212 286v88c172-38 298-192 298-374 0-64-16-126-44-178l-64 66c14 34 22 72 22 112zM704 512c0-10 0-18-2-26l-104 104v94c64-32 106-96 106-172z" />
<glyph unicode="&#xe050;" glyph-name="volume_up" d="M598 886c172-38 298-192 298-374s-126-336-298-374v88c124 36 212 150 212 286s-88 250-212 286v88zM704 512c0-76-42-140-106-172v344c64-32 106-96 106-172zM128 640h170l214 214v-684l-214 214h-170v256z" />
<glyph unicode="&#xe051;" glyph-name="web" d="M854 256v384h-172v-384h172zM640 470v170h-470v-170h470zM640 256v170h-470v-170h470zM854 854c46 0 84-40 84-86v-512c0-46-38-86-84-86h-684c-46 0-84 40-84 86v512c0 46 38 86 84 86h684z" />
<glyph unicode="&#xe052;" glyph-name="hd" d="M618 448v128h86v-128h-86zM554 640v-256h172c24 0 42 18 42 42v172c0 24-18 42-42 42h-172zM470 384v256h-64v-106h-86v106h-64v-256h64v86h86v-86h64zM810 896c46 0 86-40 86-86v-596c0-46-40-86-86-86h-596c-48 0-86 40-86 86v596c0 46 38 86 86 86h596z" />
<glyph unicode="&#xe053;" glyph-name="sort_by_alpha" d="M672 336h260v-68h-364v54l252 366h-250v68h354v-54zM212 442h166l-84 222zM260 756h70l192-488h-78l-40 104h-218l-40-104h-78zM438 198h198l-100-100zM638 826h-202l100 100z" />
<glyph unicode="&#xe055;" glyph-name="airplay" d="M896 896c46 0 86-40 86-86v-512c0-46-40-84-86-84h-170v84h170v512h-768v-512h170v-84h-170c-46 0-86 38-86 84v512c0 46 40 86 86 86h768zM256 86l256 256 256-256h-512z" />
<glyph unicode="&#xe056;" glyph-name="forward_10" d="M564 376c0-6.531 12.65-14 20-14 4 0 10 0 14 4l8 10s4 8 4 12v86c0 0-4 8-4 12 0 5.505-16.424 14-22 14-4 0-8-2-12-6l-8-8s-6-8-6-12v-86s6-8 6-12zM644 418c0-12 0-26-4-34l-12-26s-14-12-22-12-18-4-26-4-18 0-26 4-12 8-20 12c-13.488 6.744-18 39.492-18 60v30c0 12 0 26 4 34l14 26s12 12 20 12 18 4 26 4 18 0 26-4 14-8 22-12 8-14 12-26 4-22 4-34v-30zM466 342h-40v140l-42-12v30l76 24h6v-182zM170 470c0 188 154 340 342 340v172l214-214-214-214v172c-140 0-256-116-256-256s116-256 256-256 256 116 256 256h86c0-188-154-342-342-342s-342 154-342 342z" />
<glyph unicode="&#xe057;" glyph-name="forward_30" d="M170 470c0 188 154 340 342 340v172l214-214-214-214v172c-140 0-256-116-256-256s116-256 256-256 256 116 256 256h86c0-188-154-342-342-342s-342 154-342 342zM568 376c0-6.531 12.65-14 20-14 4 0 10 0 14 4l8 10s4 8 4 12v86c0 0-4 8-4 12 0 5.505-16.424 14-22 14-4 0-8-2-12-6l-8-8s-4-8-4-12v-86s4-8 4-12zM652 418c0-12 0-26-4-34l-12-26s-14-12-22-12-18-4-26-4c-20.252 0-32.299 9.149-46 16-8 4-8 14-12 26s-6 22-6 34v30c0 12 2 26 6 34l12 26s14 12 22 12 16 4 24 4 18 0 26-4 14-8 22-12 8-14 12-26 4-22 4-34v-30zM426 448c16.239 0 30 9.918 30 26v8s-4 4-4 8-4 4-8 4h-22s-4-4-8-4-4-4-4-8v-8h-44c0 19.788 17.639 46 36 46 4 0 16 4 20 4 17.345 0 35.264-5.632 48-12 10.13-5.065 16-24.218 16-38v-14s-4-8-4-12-4-8-8-8-10-6-14-10c8-4 18-8 22-16s8-18 8-26 0-18-4-22-8-12-12-16-14-8-22-8-18-4-26-4-16 0-20 4-14 4-22 8c-11.162 5.581-18 27.017-18 42h36v-8s4-4 4-8 4-4 8-4h22s4 4 8 4 4 4 4 8v22s-4 4-4 8-4 4-8 4h-26v30h16z" />
<glyph unicode="&#xe058;" glyph-name="forward_5" d="M500 444c-3.584-1.434-14-4.805-14-8 0-4-4-6-4-6h-26l10 94h102v-30h-74l-4-38s4 0 4 4 6 2 6 6 4 0 8 0h8c8 0 18-2 22-6s12-8 16-12c8.873-8.873 18-27.257 18-46 0-8 0-18-4-22s-6-14-14-22c-11.246-11.246-26.59-16-46-16-8 0-18 0-22 4s-12 4-20 8c-11.191 5.596-18 22.554-18 38h34c0-14.809 10.59-20 26-20 4 0 8 0 12 4l10 8s4 8 4 12v26l-4 8-10 10s-8 4-12 4h-8zM170 470c0 188 154 340 342 340v172l214-214-214-214v172c-140 0-256-116-256-256s116-256 256-256 256 116 256 256h86c0-188-154-342-342-342s-342 154-342 342z" />
<glyph unicode="&#xe059;" glyph-name="replay_10" d="M564 376c0-6.531 12.65-14 20-14 4 0 10 0 14 4l8 10s4 8 4 12v86c0 0-4 8-4 12 0 5.505-16.424 14-22 14-4 0-8-2-12-6l-8-8s-6-8-6-12v-86s6-8 6-12zM648 418c0-12 0-26-4-34l-12-26s-14-12-22-12-18-4-26-4-18 0-26 4-12 8-20 12c-13.488 6.744-18 39.492-18 60v30c0 12 0 26 4 34l14 26s12 12 20 12 18 4 26 4 18 0 26-4 14-8 22-12 8-14 12-26 4-22 4-34v-30zM466 342h-40v140l-42-12v30l76 24h6v-182zM512 810c188 0 342-152 342-340s-154-342-342-342-342 154-342 342h86c0-140 116-256 256-256s256 116 256 256-116 256-256 256v-172l-214 214 214 214v-172z" />
<glyph unicode="&#xe05a;" glyph-name="replay_30" d="M572 376c0-7.531 13.843-14 22-14 4 0 8 0 12 4l8 10s4 8 4 12v86c0 4-4 8-4 12 0 4.671-15.121 14-20 14-4 0-10-2-14-6l-8-8s-4-8-4-12v-86s4-8 4-12zM652 418c0-12 0-26-4-34l-12-26s-14-12-22-12-18-4-26-4c-20.252 0-32.299 9.149-46 16-8 4-8 14-12 26s-6 22-6 34v30c0 12 2 26 6 34l12 26s14 12 22 12 16 4 24 4 18 0 26-4 14-8 22-12 8-14 12-26 4-22 4-34v-30zM426 448c16.239 0 30 9.918 30 26v8s-4 4-4 8-4 4-8 4h-22s-4-4-8-4-4-4-4-8v-8h-44c0 19.788 17.639 46 36 46 4 0 16 4 20 4 17.345 0 35.264-5.632 48-12 10.13-5.065 16-24.218 16-38v-14s-4-8-4-12-4-8-8-8-10-6-14-10c8-4 18-8 22-16s8-18 8-26 0-18-4-22-8-12-12-16-14-8-22-8-18-4-26-4-16 0-20 4-14 4-22 8c-11.162 5.581-18 27.017-18 42h36v-8s4-4 4-8 4-4 8-4h22s4 4 8 4 4 4 4 8v22s-4 4-4 8-4 4-8 4h-26v30h16zM512 810c188 0 342-152 342-340s-154-342-342-342-342 154-342 342h86c0-140 116-256 256-256s256 116 256 256-116 256-256 256v-172l-214 214 214 214v-172z" />
<glyph unicode="&#xe05b;" glyph-name="replay_5" d="M504 444c-3.584-1.434-14-4.805-14-8 0-4-4-6-4-6h-30l10 94h102v-30h-74l-4-38s4 0 4 4 6 2 6 6 4 0 8 0h8c8 0 18-2 22-6s12-8 16-12c8.873-8.873 18-27.257 18-46 0-8 0-18-4-22s-6-14-14-22-12-8-16-12-18-4-26-4-18 0-22 4-12 4-20 8c-11.191 5.596-18 22.554-18 38h34c0-14.809 10.59-20 26-20 4 0 8 0 12 4l10 8s4 8 4 12v26l-4 8-10 10s-8 4-12 4h-8zM512 810c188 0 342-152 342-340s-154-342-342-342-342 154-342 342h86c0-140 116-256 256-256s256 116 256 256-116 256-256 256v-172l-214 214 214 214v-172z" />
<glyph unicode="&#xe05c;" glyph-name="add_to_queue" d="M682 598v-86h-128v-128h-84v128h-128v86h128v128h84v-128h128zM896 298v512h-768v-512h768zM896 896c46 0 86-38 86-86l-2-512c0-46-38-84-84-84h-214v-86h-340v86h-214c-48 0-86 38-86 84v512c0 48 38 86 86 86h768z" />
<glyph unicode="&#xe05d;" glyph-name="fiber_dvr" d="M896 534v42c0 36-28 64-64 64h-150v-256h64v86h50l36-86h64l-38 90c22 10 38 34 38 60zM538 384l76 256h-64l-44-146-42 146h-64l74-256h64zM342 448v128c0 36-28 64-64 64h-150v-256h150c36 0 64 28 64 64zM896 896c48 0 86-38 86-86v-596c0-46-38-86-86-86h-768c-48 0-86 40-86 86v596c0 48 38 86 86 86h768zM192 576h86v-128h-86v128zM746 576h86v-42h-86v42z" />
<glyph unicode="&#xe05e;" glyph-name="fiber_new" d="M874 426v214h-52v-192h-48v150h-54v-150h-48v192h-54v-214c0-24 20-42 44-42h170c24 0 42 18 42 42zM576 586v54h-170v-256h170v54h-106v46h106v54h-106v48h106zM362 384v256h-52v-150l-108 150h-52v-256h52v150l110-150h50zM854 854c48 0 84-38 84-86v-512c0-48-36-86-84-86h-684c-48 0-84 38-84 86v512c0 48 36 86 84 86h684z" />
<glyph unicode="&#xe05f;" glyph-name="playlist_play" d="M726 470l212-128-212-128v256zM86 384v86h554v-86h-554zM810 810v-84h-724v84h724zM810 640v-86h-724v86h724z" />
<glyph unicode="&#xe060;" glyph-name="art_track" d="M448 384l-96 128-74-96-54 64-74-96h298zM512 640v-256c0-46-40-86-86-86h-256c-46 0-84 40-84 86v256c0 46 38 86 84 86h256c46 0 86-40 86-86zM598 298v86h340v-86h-340zM938 726v-86h-340v86h340zM938 470h-340v84h340v-84z" />
<glyph unicode="&#xe061;" glyph-name="fiber_manual_record" d="M170 512c0 188 154 342 342 342s342-154 342-342-154-342-342-342-342 154-342 342z" />
<glyph unicode="&#xe062;" glyph-name="fiber_smart_record" d="M726 842c148-38 256-170 256-330s-108-292-256-330v88c100 34 170 130 170 242s-70 208-170 242v88zM42 512c0 188 154 342 342 342s342-154 342-342-154-342-342-342-342 154-342 342z" />
<glyph unicode="&#xe063;" glyph-name="music_video" d="M342 384c0 70 58 128 128 128 14 0 28-4 42-8v264h214v-86h-128v-300c0-70-58-126-128-126s-128 58-128 128zM896 214v596h-768v-596h768zM896 896c46 0 86-40 86-86v-596c0-46-40-86-86-86h-768c-46 0-86 40-86 86v596c0 46 40 86 86 86h768z" />
<glyph unicode="&#xe064;" glyph-name="subscriptions" d="M682 342l-256 138v-278zM938 512v-342c0-46-38-84-84-84h-684c-46 0-84 38-84 84v342c0 46 38 86 84 86h684c46 0 84-40 84-86zM768 938v-84h-512v84h512zM854 682h-684v86h684v-86z" />
<glyph unicode="&#xe065;" glyph-name="playlist_add_check" d="M918 534l64-64-298-300-194 192 64 64 130-128zM86 342v84h340v-84h-340zM598 768v-86h-512v86h512zM598 598v-86h-512v86h512z" />
<glyph unicode="&#xe066;" glyph-name="queue_play_next" d="M1024 256l-192-192-64 64 128 128-128 128 64 64zM554 598h128v-86h-128v-128h-84v128h-128v86h128v128h84v-128zM896 896c46 0 86-38 86-86v-340h-86v340h-768v-512h640v-84h-86v-86h-340v86h-214c-48 0-86 38-86 84v512c0 48 38 86 86 86h768z" />
<glyph unicode="&#xe067;" glyph-name="remove_from_queue" d="M682 598v-86h-340v86h340zM896 298v512h-768v-512h768zM896 896c46 0 86-38 86-86l-2-512c0-46-38-84-84-84h-214v-86h-340v86h-214c-48 0-86 38-86 84v512c0 48 38 86 86 86h768z" />
<glyph unicode="&#xe068;" glyph-name="slow_motion_video" d="M938 512c0-220-168-402-382-424v86c168 22 298 166 298 338s-130 316-298 338v86c214-22 382-204 382-424zM242 182l60 60c48-36 106-60 168-68v-86c-86 8-164 42-228 94zM174 470c8-62 32-120 68-166l-60-62c-52 64-86 142-94 228h86zM242 722c-36-48-60-106-68-168h-86c8 86 42 164 94 228zM470 850c-62-8-120-32-168-68l-60 60c64 52 142 86 228 94v-86zM556 606l126-94c-85.639-63.694-170.958-127.709-256-192z" />
<glyph unicode="&#xe069;" glyph-name="web_asset" d="M810 256v426h-596v-426h596zM810 854c48 0 86-40 86-86v-512c0-46-40-86-86-86h-596c-48 0-86 40-86 86v512c0 46 38 86 86 86h596z" />
<glyph unicode="&#xe06a;" glyph-name="fiber_pin" d="M854 384v256h-54v-150l-106 150h-54v-256h54v150l108-150h52zM534 384v256h-64v-256h64zM384 534v42c0 36-28 64-64 64h-150v-256h64v86h86c36 0 64 28 64 64zM854 854c48 0 84-38 84-86v-512c0-48-36-86-84-86h-684c-48 0-84 38-84 86v512c0 48 36 86 84 86h684zM234 576h86v-42h-86v42z" />
<glyph unicode="&#xe06b;" glyph-name="branding_watermark" d="M896 214v256h-384v-256h384zM896 896c46 0 86-40 86-86v-596c0-46-40-86-86-86h-768c-46 0-86 40-86 86v596c0 46 40 86 86 86h768z" />
<glyph unicode="&#xe06c;" glyph-name="call_to_action" d="M896 214v128h-768v-128h768zM896 896c46 0 86-40 86-86v-596c0-46-40-86-86-86h-768c-46 0-86 40-86 86v596c0 46 40 86 86 86h768z" />
<glyph unicode="&#xe06d;" glyph-name="featured_play_list" d="M512 726v84h-384v-84h384zM512 554v86h-384v-86h384zM896 896c46 0 86-40 86-86v-596c0-46-40-86-86-86h-768c-46 0-86 40-86 86v596c0 46 40 86 86 86h768z" />
<glyph unicode="&#xe06e;" glyph-name="featured_video" d="M512 512v298h-384v-298h384zM896 896c46 0 86-40 86-86v-596c0-46-40-86-86-86h-768c-46 0-86 40-86 86v596c0 46 40 86 86 86h768z" />
<glyph unicode="&#xe06f;" glyph-name="note" d="M640 790v-236h234zM938 598v-342c0-46-38-84-84-84l-684-2c-46 0-84 40-84 86v512c0 46 38 86 84 86h512z" />
<glyph unicode="&#xe070;" glyph-name="video_call" d="M598 470v84h-128v128h-86v-128h-128v-84h128v-128h86v128h128zM726 576l170 170v-468l-170 170v-150c0-24-20-42-44-42h-512c-24 0-42 18-42 42v428c0 24 18 42 42 42h512c24 0 44-18 44-42v-150z" />
<glyph unicode="&#xe071;" glyph-name="video_label" d="M896 342v468h-768v-468h768zM896 896c46 0 86-40 86-86v-596c0-46-40-86-86-86h-768c-46 0-86 40-86 86v596c0 46 40 86 86 86h768z" />
<glyph unicode="&#xe0b1;" glyph-name="call_end" d="M512 640c-68 0-134-10-196-30v-132c0-16-10-34-24-40-42-20-80-46-114-78-8-8-18-12-30-12s-22 4-30 12l-106 106c-8 8-12 18-12 30s4 22 12 30c130 124 306 200 500 200s370-76 500-200c8-8 12-18 12-30s-4-22-12-30l-106-106c-8-8-18-12-30-12s-22 4-30 12c-34 32-72 58-114 78-14 6-24 20-24 38v132c-62 20-128 32-196 32z" />
<glyph unicode="&#xe0b2;" glyph-name="call_made" d="M384 810h426v-426h-84v282l-496-496-60 60 496 496h-282v84z" />
<glyph unicode="&#xe0b4;" glyph-name="call_missed" d="M836 726l60-60-384-384-298 298v-196h-86v342h342v-86h-196l238-238z" />
<glyph unicode="&#xe0b5;" glyph-name="call_received" d="M854 794l-496-496h282v-84h-426v426h84v-282l496 496z" />
<glyph unicode="&#xe0b6;" glyph-name="call_split" d="M426 854l-98-98 226-226v-360h-84v324l-202 202-98-98v256h256zM598 854h256v-256l-98 98-124-124-60 60 124 124z" />
<glyph unicode="&#xe0b7;" glyph-name="chat" d="M768 682v86h-512v-86h512zM598 426v86h-342v-86h342zM256 640v-86h512v86h-512zM854 938c46 0 84-38 84-84v-512c0-46-38-86-84-86h-598l-170-170v768c0 46 38 84 84 84h684z" />
<glyph unicode="&#xe0b8;" glyph-name="clear_all" d="M298 726h598v-86h-598v86zM128 298v86h598v-86h-598zM214 470v84h596v-84h-596z" />
<glyph unicode="&#xe0b9;" glyph-name="comment" d="M768 682v86h-512v-86h512zM768 554v86h-512v-86h512zM768 426v86h-512v-86h512zM938 854v-768l-170 170h-598c-46 0-84 40-84 86v512c0 46 38 84 84 84h684c46 0 84-38 84-84z" />
<glyph unicode="&#xe0ba;" glyph-name="contacts" d="M726 298v64c0 72-142 108-214 108s-214-36-214-108v-64h428zM512 736c-52 0-96-44-96-96s44-96 96-96 96 44 96 96-44 96-96 96zM854 854c46 0 84-40 84-86v-512c0-46-38-86-84-86h-684c-46 0-84 40-84 86v512c0 46 38 86 84 86h684zM170 0v86h684v-86h-684zM854 1024v-86h-684v86h684z" />
<glyph unicode="&#xe0bb;" glyph-name="dialer_sip" d="M854 362c24 0 42-18 42-42v-150c0-24-18-42-42-42-400 0-726 326-726 726 0 24 18 42 42 42h150c24 0 42-18 42-42 0-54 8-104 24-152 4-14 2-32-10-44l-94-94c62-122 162-220 282-282l94 94c12 12 30 14 44 10 48-16 98-24 152-24zM854 810v44h-44v-44h44zM768 896h128v-128h-86v-86h-42v214zM640 810v-128h-128v44h86v42h-86v128h128v-42h-86v-44h86zM726 896v-214h-44v214h44z" />
<glyph unicode="&#xe0bc;" glyph-name="dialpad" d="M512 982c46 0 86-40 86-86s-40-86-86-86-86 40-86 86 40 86 86 86zM512 726c46 0 86-40 86-86s-40-86-86-86-86 40-86 86 40 86 86 86zM768 726c46 0 86-40 86-86s-40-86-86-86-86 40-86 86 40 86 86 86zM768 470c46 0 86-40 86-86s-40-86-86-86-86 40-86 86 40 86 86 86zM512 470c46 0 86-40 86-86s-40-86-86-86-86 40-86 86 40 86 86 86zM768 810c-46 0-86 40-86 86s40 86 86 86 86-40 86-86-40-86-86-86zM256 470c46 0 86-40 86-86s-40-86-86-86-86 40-86 86 40 86 86 86zM256 726c46 0 86-40 86-86s-40-86-86-86-86 40-86 86 40 86 86 86zM256 982c46 0 86-40 86-86s-40-86-86-86-86 40-86 86 40 86 86 86zM512 214c46 0 86-40 86-86s-40-86-86-86-86 40-86 86 40 86 86 86z" />
<glyph unicode="&#xe0c3;" glyph-name="import_export" d="M682 298h128l-170-170-170 170h128v300h84v-300zM384 896l170-170h-128v-300h-84v300h-128z" />
<glyph unicode="&#xe0c4;" glyph-name="invert_colors_off" d="M512 806l-98-96-60 60 158 158 242-242c104-104 126-258 68-384l-310 308v196zM512 188v206l-204 204c-34-44-52-98-52-154 0-137.583 118.4-256 256-256zM882 134l14-16-54-54-116 116c-62-50-138-76-214-76-88 0-176 34-242 100-124 126-132 322-24 456l-118 118 54 54c232.99-232.99 464.706-467.32 700-698z" />
<glyph unicode="&#xe0c6;" glyph-name="live_help" d="M642 586c24 24 40 58 40 96 0 94-76 172-170 172s-170-78-170-172h84c0 46 40 86 86 86s86-40 86-86c0-24-10-44-26-60l-52-54c-30-32-50-74-50-120v-22h84c0 64 20 90 50 122zM554 256v86h-84v-86h84zM810 938c46 0 86-38 86-84v-598c0-46-40-86-86-86h-170l-128-128-128 128h-170c-48 0-86 40-86 86v598c0 46 38 84 86 84h596z" />
<glyph unicode="&#xe0c7;" glyph-name="location_off" d="M500 534c118.353-116.98 236.568-234.098 354-352l-54-54-144 142c-72-106-144-184-144-184s-298 330-298 554c0 22 4 44 8 66l-136 136 54 54 356-356zM512 746c-32 0-58-14-78-36l-138 136c54 56 132 92 216 92 166 0 298-132 298-298 0-72-30-154-72-234l-154 156c22 20 34 46 34 78 0 58-48 106-106 106z" />
<glyph unicode="&#xe0c9;" glyph-name="message" d="M768 682v86h-512v-86h512zM768 554v86h-512v-86h512zM768 426v86h-512v-86h512zM854 938c46 0 84-38 84-84v-512c0-46-38-86-84-86h-598l-170-170v768c0 46 38 84 84 84h684z" />
<glyph unicode="&#xe0ca;" glyph-name="chat_bubble" d="M854 938c46 0 84-38 84-84v-512c0-46-38-86-84-86h-598l-170-170v768c0 46 38 84 84 84h684z" />
<glyph unicode="&#xe0cb;" glyph-name="chat_bubble_outline" d="M854 342v512h-684v-598l86 86h598zM854 938c46 0 84-38 84-84v-512c0-46-38-86-84-86h-598l-170-170v768c0 46 38 84 84 84h684z" />
<glyph unicode="&#xe0cd;" glyph-name="phone" d="M282 564c62-120 162-220 282-282l94 94c12 12 30 16 44 10 48-16 100-24 152-24 24 0 42-18 42-42v-150c0-24-18-42-42-42-400 0-726 326-726 726 0 24 18 42 42 42h150c24 0 42-18 42-42 0-54 8-104 24-152 4-14 2-32-10-44z" />
<glyph unicode="&#xe0ce;" glyph-name="portable_wifi_off" d="M140 918l42-44 714-714-54-54-320 322h-2l-8-2c-46 0-86 40-86 86l2 8-68 68c-12-24-18-48-18-76 0-64 34-118 84-148l-42-74c-76 44-128 128-128 222 0 52 14 98 40 138l-60 62c-40-56-66-124-66-200 0-126 68-236 170-296l-42-74c-128 74-212 212-212 370 0 98 32 190 88 262l-88 90zM512 854c-58 0-112-14-160-40l-62 62c64 40 140 62 222 62 236 0 426-190 426-426 0-82-22-158-62-222l-64 62c26 48 42 102 42 160 0 188-154 342-342 342zM750 416l-70 70c2 8 2 18 2 26 0 94-76 170-170 170-8 0-18 0-26-2l-70 70c30 12 62 18 96 18 142 0 256-114 256-256 0-34-6-66-18-96z" />
<glyph unicode="&#xe0cf;" glyph-name="contact_phone" d="M762 426c-10 26-16 56-16 86s6 60 16 86h70l64 84-84 86c-56-42-98-100-118-170-8-28-12-56-12-86s4-58 12-86c20-68 62-128 118-170l84 86-64 84h-70zM598 256v42c0 86-170 132-256 132s-256-46-256-132v-42h512zM342 768c-70 0-128-58-128-128s58-128 128-128 128 58 128 128-58 128-128 128zM938 896c46 0 86-40 86-86v-596c0-46-40-86-86-86h-852c-46 0-86 40-86 86v596c0 46 40 86 86 86h852z" />
<glyph unicode="&#xe0d0;" glyph-name="contact_mail" d="M938 512v256h-340v-256h340zM598 256v42c0 86-170 132-256 132s-256-46-256-132v-42h512zM342 768c-70 0-128-58-128-128s58-128 128-128 128 58 128 128-58 128-128 128zM938 896c46 0 86-40 86-86v-596c0-46-40-86-86-86h-852c-46 0-86 40-86 86v596c0 46 40 86 86 86h852zM896 682l-128-84-128 84v44l128-86 128 86v-44z" />
<glyph unicode="&#xe0d1;" glyph-name="ring_volume" d="M274 606c0 0-148 148-152 150l60 62 152-152zM554 938v-212h-84v212h84zM902 756c-4-2-152-150-152-150l-60 60 152 152zM1012 312c8-8 12-18 12-30s-4-22-12-30l-106-106c-8-8-18-12-30-12s-22 4-30 12c-34 32-72 60-114 80-14 6-24 22-24 38v132c-62 20-128 30-196 30s-134-10-196-30v-132c0-18-10-34-24-40-42-20-80-46-114-78-8-8-18-12-30-12s-22 4-30 12l-106 106c-8 8-12 18-12 30s4 22 12 30c130 124 306 200 500 200s370-76 500-200z" />
<glyph unicode="&#xe0d2;" glyph-name="speaker_phone" d="M640 170v342h-256v-342h256zM634 596c26 0 48-22 48-48v-414c0-26-22-48-48-48h-244c-26 0-48 22-48 48v414c0 26 22 50 48 50zM512 982c128 0 246-54 330-138l-60-60c-70 70-164 112-270 112s-200-42-270-112l-60 60c84 84 202 138 330 138zM298 722c54 54 130 88 214 88s160-34 214-88l-62-60c-38 38-92 62-152 62s-114-24-152-62z" />
<glyph unicode="&#xe0d5;" glyph-name="stay_primary_landscape" d="M810 726h-596v-428h596v428zM44 726c0 46 38 84 84 84h768c46 0 86-38 86-84v-428c0-46-40-84-86-84h-768c-46 0-86 38-86 84z" />
<glyph unicode="&#xe0d6;" glyph-name="stay_primary_portrait" d="M726 214v596h-428v-596h428zM726 980c46 0 84-38 84-84v-768c0-46-38-86-84-86h-428c-46 0-84 40-84 86v768c0 46 38 86 84 86z" />
<glyph unicode="&#xe0d7;" glyph-name="swap_calls" d="M768 854l170-172h-128v-298c0-94-76-170-170-170s-170 76-170 170v298c0 46-40 86-86 86s-86-40-86-86v-298h128l-170-170-170 170h128v298c0 94 76 172 170 172s170-78 170-172v-298c0-46 40-86 86-86s86 40 86 86v298h-128z" />
<glyph unicode="&#xe0d8;" glyph-name="textsms" d="M726 554v86h-86v-86h86zM554 554v86h-84v-86h84zM384 554v86h-86v-86h86zM854 938c46 0 84-38 84-84v-512c0-46-38-86-84-86h-598l-170-170v768c0 46 38 84 84 84h684z" />
<glyph unicode="&#xe0d9;" glyph-name="voicemail" d="M790 384c82 0 148 68 148 150s-66 148-148 148-150-66-150-148 68-150 150-150zM234 384c82 0 150 68 150 150s-68 148-150 148-148-66-148-148 66-150 148-150zM790 768c130 0 234-104 234-234s-104-236-234-236h-556c-130 0-234 106-234 236s104 234 234 234 236-104 236-234c0-56-20-110-54-150h192c-34 40-54 94-54 150 0 130 106 234 236 234z" />
<glyph unicode="&#xe0da;" glyph-name="vpn_key" d="M298 426c46 0 86 40 86 86s-40 86-86 86-84-40-84-86 38-86 84-86zM540 598h442v-172h-86v-170h-170v170h-186c-34-100-130-170-242-170-142 0-256 114-256 256s114 256 256 256c112 0 208-70 242-170z" />
<glyph unicode="&#xe0db;" glyph-name="phonelink_erase" d="M810 982c46 0 86-40 86-86v-768c0-46-40-86-86-86h-426c-46 0-86 40-86 86v128h86v-86h426v684h-426v-86h-86v128c0 46 40 86 86 86h426zM554 674l-170-170 170-172-42-42-170 170-172-170-42 42 170 172-170 170 42 42 172-170 170 170z" />
<glyph unicode="&#xe0dc;" glyph-name="phonelink_lock" d="M406 554v64c0 34-30 56-64 56s-64-22-64-56v-64h128zM460 554c26 0 52-24 52-54v-150c0-26-26-52-56-52h-234c-26 0-52 26-52 56v150c0 26 26 50 52 50v64c0 60 60 108 120 108s118-48 118-108v-64zM810 982c46 0 86-40 86-86v-768c0-46-40-86-86-86h-426c-46 0-86 40-86 86v128h86v-86h426v684h-426v-86h-86v128c0 46 40 86 86 86h426z" />
<glyph unicode="&#xe0dd;" glyph-name="phonelink_ring" d="M598 170v684h-428v-684h428zM598 982c46 0 84-40 84-86v-768c0-46-38-86-84-86h-428c-46 0-84 40-84 86v768c0 46 38 86 84 86h428zM768 606c52-56 52-132 0-184l-42 44c22 30 22 68 0 98zM858 696c106-102 106-266 0-364l-44 44c76 82 76 200 0 276z" />
<glyph unicode="&#xe0de;" glyph-name="phonelink_setup" d="M810 982c46 0 86-40 86-86v-768c0-46-40-86-86-86h-426c-46 0-86 40-86 86v128h86v-86h426v684h-426v-86h-86v128c0 46 40 86 86 86h426zM342 426c46 0 84 40 84 86s-38 86-84 86-86-40-86-86 40-86 86-86zM504 490l46-38c4-4 8-8 4-12l-42-74c-4-4-8-4-12-4l-56 22c-12-8-26-18-38-22l-10-54c-4-4-8-10-12-10h-86c-4 0-12 6-8 10l-8 54c-12 4-26 14-38 22l-60-18c-4-4-10 2-14 6l-42 72c0 4 0 8 4 16l48 34v44l-48 34c-4 4-8 8-4 12l42 74c4 4 10 4 14 4l54-22c12 8 28 18 40 22l8 54c4 4 8 10 12 10h86c8 0 12-6 12-10l10-54c12-4 26-14 38-22l56 18c4 4 8-2 12-6l42-72c0-4 0-8-4-12l-46-34v-44z" />
<glyph unicode="&#xe0df;" glyph-name="present_to_all" d="M426 512h-84l170 170 170-170h-84v-170h-172v170zM896 212v600h-768v-600h768zM896 896c48 0 86-38 86-86v-596c0-48-38-86-86-86h-768c-48 0-86 38-86 86v596c0 48 38 86 86 86h768z" />
<glyph unicode="&#xe0e0;" glyph-name="import_contacts" d="M896 234v492c-46 14-98 20-150 20-72 0-176-28-234-64v-490c58 36 162 64 234 64 52 0 104-8 150-22zM746 832c88.409 0 181.498-22.075 236-64v-622c0-10-12-22-22-22-4 0-6 0-10 2-60 32-134 44-204 44-72 0-176-28-234-64-62 46-150 64-234 64-62 0-146-18-204-46-4 0-6-2-10-2-10 0-22 10-22 20v626c62 46 152 64 236 64s172-18 234-64c62 46 150 64 234 64z" />
<glyph unicode="&#xe0e1;" glyph-name="mail_outline" d="M512 554l342 214h-684zM854 256v426l-342-212-342 212v-426h684zM854 854c46 0 84-40 84-86v-512c0-46-38-86-84-86h-684c-46 0-84 40-84 86v512c0 46 38 86 84 86h684z" />
<glyph unicode="&#xe0e2;" glyph-name="screen_share" d="M554 406l172 160-172 160v-92c-166-24-232-136-256-250 60 80 138 116 256 116v-94zM854 256h170v-86h-1024v86h170c-48 0-84 40-84 86v426c0 48 36 86 84 86h684c46 0 84-38 84-86v-426c0-46-38-86-84-86z" />
<glyph unicode="&#xe0e3;" glyph-name="stop_screen_share" d="M298 384c40 56 90 88 156 104l-68 68c-50-48-74-108-88-172zM102 950l842-842-54-54-116 116h-774v86h170c-48 0-84 38-84 84v428c0 26 10 46 28 62l-66 66zM938 340c0-32-18-60-44-74l-236 236 68 64-172 158v-90c-8-2-14-2-22-4l-224 222h546c46 0 84-36 84-84v-428zM906 256h118v-86h-34z" />
<glyph unicode="&#xe0e4;" glyph-name="call_missed_outgoing" d="M128 666l60 60 324-324 238 238h-196v86h342v-342h-86v196l-298-298z" />
<glyph unicode="&#xe0e5;" glyph-name="rss_feed" d="M170 594c234 0 424-190 424-424h-122c0 166-136 302-302 302v122zM170 834c366 0 664-298 664-664h-120c0 300-244 544-544 544v120zM170 264c0 52 42 92 94 92s92-40 92-92-40-94-92-94-94 42-94 94z" />
<glyph unicode="&#xe145;" glyph-name="add" d="M810 470h-256v-256h-84v256h-256v84h256v256h84v-256h256v-84z" />
<glyph unicode="&#xe146;" glyph-name="add_box" d="M726 470v84h-172v172h-84v-172h-172v-84h172v-172h84v172h172zM810 896c46 0 86-40 86-86v-596c0-46-40-86-86-86h-596c-48 0-86 40-86 86v596c0 46 38 86 86 86h596z" />
<glyph unicode="&#xe147;" glyph-name="add_circle" d="M726 470v84h-172v172h-84v-172h-172v-84h172v-172h84v172h172zM512 938c236 0 426-190 426-426s-190-426-426-426-426 190-426 426 190 426 426 426z" />
<glyph unicode="&#xe149;" glyph-name="archive" d="M218 810h588l-40 44h-512zM512 278l234 234h-148v86h-172v-86h-148zM876 800c12-14 20-34 20-54v-532c0-46-40-86-86-86h-596c-46 0-86 40-86 86v532c0 20 8 40 20 54l58 72c12 14 30 24 50 24h512c20 0 38-10 50-24z" />
<glyph unicode="&#xe14a;" glyph-name="backspace" d="M810 358l-152 154 152 154-60 60-152-154-154 154-60-60 154-154-154-154 60-60 154 154 152-154zM938 896c46 0 86-40 86-86v-596c0-46-40-86-86-86h-640c-30 0-52 16-68 38l-230 346 230 346c16 22 38 38 68 38h640z" />
<glyph unicode="&#xe14b;" glyph-name="block" d="M512 170c188 0 342 154 342 342 0 78-26 152-72 210l-480-480c58-46 132-72 210-72zM170 512c0-78 26-152 72-210l480 480c-58 46-132 72-210 72-188 0-342-154-342-342zM512 938c236 0 426-190 426-426s-190-426-426-426-426 190-426 426 190 426 426 426z" />
<glyph unicode="&#xe14d;" glyph-name="content_copy" d="M810 128v598h-468v-598h468zM810 810c46 0 86-38 86-84v-598c0-46-40-86-86-86h-468c-46 0-86 40-86 86v598c0 46 40 84 86 84h468zM682 982v-86h-512v-598h-84v598c0 46 38 86 84 86h512z" />
<glyph unicode="&#xe14e;" glyph-name="content_cut" d="M810 896h128v-42l-298-300-86 86zM512 490c12 0 22 10 22 22s-10 22-22 22-22-10-22-22 10-22 22-22zM256 170c46 0 86 38 86 86s-40 86-86 86-86-38-86-86 40-86 86-86zM256 682c46 0 86 38 86 86s-40 86-86 86-86-38-86-86 40-86 86-86zM412 698l526-528v-42h-128l-298 298-100-100c10-22 14-44 14-70 0-94-76-170-170-170s-170 76-170 170 76 170 170 170c26 0 48-4 70-14l100 100-100 100c-22-10-44-14-70-14-94 0-170 76-170 170s76 170 170 170 170-76 170-170c0-26-4-48-14-70z" />
<glyph unicode="&#xe14f;" glyph-name="content_paste" d="M810 170v684h-84v-128h-428v128h-84v-684h596zM512 938c-24 0-42-18-42-42s18-42 42-42 42 18 42 42-18 42-42 42zM810 938c46 0 86-38 86-84v-684c0-46-40-84-86-84h-596c-46 0-86 38-86 84v684c0 46 40 84 86 84h178c18 50 64 86 120 86s102-36 120-86h178z" />
<glyph unicode="&#xe151;" glyph-name="drafts" d="M512 470l352 220-352 206-352-206zM938 682v-426c0-46-38-86-84-86h-684c-46 0-84 40-84 86v426c0 30 16 60 40 74l386 226 386-226c24-14 40-44 40-74z" />
<glyph unicode="&#xe152;" glyph-name="filter_list" d="M256 470v84h512v-84h-512zM128 768h768v-86h-768v86zM426 256v86h172v-86h-172z" />
<glyph unicode="&#xe153;" glyph-name="flag" d="M614 768h240v-426h-300l-16 84h-240v-298h-84v726h384z" />
<glyph unicode="&#xe154;" glyph-name="forward" d="M512 682v172l342-342-342-342v172h-342v340h342z" />
<glyph unicode="&#xe155;" glyph-name="gesture" d="M592 232c30 0 80 36 92 150-92-24-124-92-124-118 0-20 18-32 32-32zM196 730l-74 72c10 12 20 24 36 40 10 10 60 54 116 54 38 0 108-30 108-122 0-58-22-92-56-140-20-28-64-104-78-150-16-46-6-82 14-82 18 0 38 24 48 36 10 10 74 84 98 116 32 40 114 120 210 120 126 0 166-108 172-178h106v-106h-104c-18-204-132-262-202-262-76 0-136 60-136 132s68 202 230 230c-4 34-6 76-76 76-54 0-122-82-174-146-48-58-84-104-130-118-99.552-31.437-170 56.487-170 146 0 104 112 252 122 270 12 20 34 56 12 64-14 6-42-22-72-52z" />
<glyph unicode="&#xe156;" glyph-name="inbox" d="M810 384v426h-598v-426h172c0-70 58-128 128-128s128 58 128 128h170zM810 896c46 0 86-38 86-86v-596c0-46-40-86-86-86h-598c-48 0-84 40-84 86v596c0 48 36 86 84 86h598z" />
<glyph unicode="&#xe157;" glyph-name="link" d="M726 726c118 0 212-96 212-214s-94-214-212-214h-172v82h172c72 0 132 60 132 132s-60 132-132 132h-172v82h172zM342 470v84h340v-84h-340zM166 512c0-72 60-132 132-132h172v-82h-172c-118 0-212 96-212 214s94 214 212 214h172v-82h-172c-72 0-132-60-132-132z" />
<glyph unicode="&#xe159;" glyph-name="markunread" d="M854 682v86l-342-214-342 214v-86l342-212zM854 854c46 0 84-40 84-86v-512c0-46-38-86-84-86h-684c-46 0-84 40-84 86v512c0 46 38 86 84 86h684z" />
<glyph unicode="&#xe15a;" glyph-name="redo" d="M786 572l152 154v-384h-384l156 154c-60 50-136 80-220 80-152 0-280-98-324-234l-100 32c58 178 226 308 424 308 114 0 218-42 296-110z" />
<glyph unicode="&#xe15b;" glyph-name="remove" d="M810 470h-596v84h596v-84z" />
<glyph unicode="&#xe15c;" glyph-name="remove_circle" d="M726 470v84h-428v-84h428zM512 938c236 0 426-190 426-426s-190-426-426-426-426 190-426 426 190 426 426 426z" />
<glyph unicode="&#xe15d;" glyph-name="remove_circle_outline" d="M512 170c188 0 342 154 342 342s-154 342-342 342-342-154-342-342 154-342 342-342zM512 938c236 0 426-190 426-426s-190-426-426-426-426 190-426 426 190 426 426 426zM298 554h428v-84h-428v84z" />
<glyph unicode="&#xe15e;" glyph-name="reply" d="M426 640c298-42 428-256 470-470-106 150-256 218-470 218v-174l-298 298 298 298v-170z" />
<glyph unicode="&#xe15f;" glyph-name="reply_all" d="M554 640c298-42 428-256 470-470-106 150-256 218-470 218v-174l-298 298 298 298v-170zM298 682l-170-170 170-170v-128l-298 298 298 298v-128z" />
<glyph unicode="&#xe160;" glyph-name="report" d="M554 470v256h-84v-256h84zM512 286c30 0 56 26 56 56s-26 54-56 54-56-24-56-54 26-56 56-56zM672 896l224-224v-320l-224-224h-320l-224 224v320l224 224h320z" />
<glyph unicode="&#xe161;" glyph-name="save" d="M640 640v170h-426v-170h426zM512 214c70 0 128 58 128 128s-58 128-128 128-128-58-128-128 58-128 128-128zM726 896l170-170v-512c0-46-40-86-86-86h-596c-48 0-86 40-86 86v596c0 46 38 86 86 86h512z" />
<glyph unicode="&#xe162;" glyph-name="select_all" d="M384 640v-256h256v256h-256zM298 298v428h428v-428h-428zM640 810v86h86v-86h-86zM640 128v86h86v-86h-86zM810 298v86h86v-86h-86zM810 640v86h86v-86h-86zM810 128v86h86c0-46-40-86-86-86zM810 470v84h86v-84h-86zM470 128v86h84v-86h-84zM384 896v-86h-86v86h86zM128 298v86h86v-86h-86zM214 128c-46 0-86 40-86 86h86v-86zM810 896c46 0 86-40 86-86h-86v86zM554 896v-86h-84v86h84zM128 640v86h86v-86h-86zM298 128v86h86v-86h-86zM128 470v84h86v-84h-86zM128 810c0 46 40 86 86 86v-86h-86z" />
<glyph unicode="&#xe163;" glyph-name="send" d="M86 128v298l640 86-640 86v298l896-384z" />
<glyph unicode="&#xe164;" glyph-name="sort" d="M128 470v84h512v-84h-512zM128 768h768v-86h-768v86zM128 256v86h256v-86h-256z" />
<glyph unicode="&#xe165;" glyph-name="text_format" d="M512 768l-80-214h160zM406 478l-40-94h-88l202 470h64l202-470h-88l-40 94h-212zM214 298h596v-84h-596v84z" />
<glyph unicode="&#xe166;" glyph-name="undo" d="M534 682c198 0 364-130 424-308l-100-32c-44 136-172 234-324 234-84 0-160-30-220-80l156-154h-384v384l152-154c78 68 182 110 296 110z" />
<glyph unicode="&#xe167;" glyph-name="font_download" d="M680 234h90l-218 556h-80l-218-556h90l48 128h240zM854 938c46 0 84-38 84-84v-684c0-46-38-84-84-84h-684c-46 0-84 38-84 84v684c0 46 38 84 84 84h684zM424 448l88 236 88-236h-176z" />
<glyph unicode="&#xe168;" glyph-name="move_to_inbox" d="M682 598l-170-172-170 172h84v128h172v-128h84zM810 384v426h-598v-426h172c0-70 58-128 128-128s128 58 128 128h170zM810 896c46 0 86-40 86-86v-596c0-46-40-86-86-86h-598c-48 0-84 40-84 86v596c0 46 36 86 84 86h598z" />
<glyph unicode="&#xe169;" glyph-name="unarchive" d="M218 810h588l-40 44h-512zM512 618l-234-234h148v-86h172v86h148zM876 802c12-14 20-36 20-56v-532c0-46-40-86-86-86h-596c-48 0-86 40-86 86v532c0 20 8 42 20 56l58 70c12 14 30 24 50 24h512c20 0 38-10 50-24z" />
<glyph unicode="&#xe16a;" glyph-name="next_week" d="M470 234l170 172-170 170-44-42 128-128-128-128zM426 810v-84h172v84h-172zM598 896c46.645 0 84-38.997 84-86v-84h172c46 0 84-40 84-86v-470c0-46-38-84-84-84h-684c-46 0-84 38-84 84v470c0 46 38 86 84 86h172v84c0 46 38 86 84 86h172z" />
<glyph unicode="&#xe16b;" glyph-name="weekend" d="M768 810c46 0 86-38 86-84v-92c-50-18-86-64-86-120v-88h-512v88c0 56-36 102-86 120v92c0 46 40 84 86 84h512zM896 598c46 0 86-40 86-86v-214c0-46-40-84-86-84h-768c-46 0-86 38-86 84v214c0 46 40 86 86 86s86-40 86-86v-128h596v128c0 46 40 86 86 86z" />
<glyph unicode="&#xe16c;" glyph-name="delete_sweep" d="M598 810v-84h-512v84h128l42 44h170l44-44h128zM128 256v426h426v-426c0-46-38-86-84-86h-256c-46 0-86 40-86 86zM640 512h256v-86h-256v86zM640 682h298v-84h-298v84zM640 342h170v-86h-170v86z" />
<glyph unicode="&#xe16d;" glyph-name="low_priority" d="M86 534c0 152 124 276 276 276h150v-84h-150c-106 0-192-86-192-192s86-192 192-192h22v84l128-128-128-128v86h-22c-152 0-276 126-276 278zM598 342h340v-86h-340v86zM598 576h340v-86h-340v86zM598 810h340v-84h-340v84z" />
<glyph unicode="&#xe191;" glyph-name="access_alarms" d="M512 170c166 0 298 134 298 300s-132 298-298 298-298-132-298-298 132-300 298-300zM512 854c214 0 384-170 384-384s-170-384-384-384-384 170-384 384 170 384 384 384zM534 682v-226l170-102-34-52-200 124v256h64zM338 878l-198-162-54 64 196 162zM938 780l-54-64-198 168 56 64z" />
<glyph unicode="&#xe194;" glyph-name="airplanemode_inactive" d="M128 800l54 54 672-672-54-54-246 244v-158l86-64v-64l-150 42-148-42v64l84 64v234l-340-106v84l254 160zM554 640l342-214v-84l-136 42-334 334v156c0 36 28 64 64 64s64-28 64-64v-234z" />
<glyph unicode="&#xe19c;" glyph-name="battery_alert" d="M554 426v214h-84v-214h84zM554 256v86h-84v-86h84zM668 854c32 0 58-26 58-58v-654c0-32-26-56-58-56h-312c-32 0-58 24-58 56v654c0 32 26 58 58 58h70v84h172v-84h70z" />
<glyph unicode="&#xe1a3;" glyph-name="battery_charging_full" d="M470 170l170 320h-86v236l-170-320h86v-236zM668 854c32 0 58-26 58-58v-654c0-32-26-56-58-56h-312c-32 0-58 24-58 56v654c0 32 26 58 58 58h70v84h172v-84h70z" />
<glyph unicode="&#xe1a5;" glyph-name="battery_std" d="M668 854c32 0 58-26 58-58v-654c0-32-26-56-58-56h-312c-32 0-58 24-58 56v654c0 32 26 58 58 58h70v84h172v-84h70z" />
<glyph unicode="&#xe1a6;" glyph-name="battery_unknown" d="M610 482c18 18 30 44 30 72 0 70-58 128-128 128s-128-58-128-128h64c0 36 28 64 64 64s64-28 64-64c0-18-6-32-18-44l-40-40c-20-20-40-50-40-86h68c0 20 16 48 36 68 12 12 28 30 28 30zM552 258v82h-80v-82h80zM668 854c32 0 58-26 58-58v-654c0-32-26-56-58-56h-312c-32 0-58 24-58 56v654c0 32 26 58 58 58h70v84h172v-84h70z" />
<glyph unicode="&#xe1a7;" glyph-name="bluetooth" d="M634 328l-80 82v-162zM554 776v-162l80 82zM756 696l-184-184 184-184-244-242h-42v324l-196-196-60 60 238 238-238 238 60 60 196-196v324h42z" />
<glyph unicode="&#xe1a8;" glyph-name="bluetooth_connected" d="M810 598l86-86-86-86-84 86zM634 328l-80 82v-162zM554 776v-162l80 82zM756 696l-184-184 184-184-244-242h-42v324l-196-196-60 60 238 238-238 238 60 60 196-196v324h42zM298 512l-84-86-86 86 86 86z" />
<glyph unicode="&#xe1a9;" glyph-name="bluetooth_disabled" d="M554 248l80 80-80 82v-162zM230 854l624-624-60-60-98 98-184-182h-42v324l-196-196-60 60 238 238-282 282zM554 776v-138l-84 86v214h42l244-242-130-130-60 60 68 70z" />
<glyph unicode="&#xe1aa;" glyph-name="bluetooth_searching" d="M550 328l-80 82v-162zM470 776v-162l80 82zM670 696l-184-184 184-184-244-242h-42v324l-196-196-60 60 238 238-238 238 60 60 196-196v324h42zM834 738c40-64 62-142 62-222 0-84-24-160-66-226l-50 50c26 52 42 110 42 172s-16 120-42 172zM608 512l98 98c12-30 20-64 20-98s-8-70-20-100z" />
<glyph unicode="&#xe1ab;" glyph-name="brightness_auto" d="M610 342h82l-138 384h-84l-138-384h82l30 84h136zM854 654l140-142-140-142v-200h-200l-142-140-142 140h-200v200l-140 142 140 142v200h200l142 140 142-140h200v-200zM462 484l50 156 50-156h-100z" />
<glyph unicode="&#xe1ac;" glyph-name="brightness_high" d="M512 682c94 0 170-76 170-170s-76-170-170-170-170 76-170 170 76 170 170 170zM512 256c142 0 256 114 256 256s-114 256-256 256-256-114-256-256 114-256 256-256zM854 654l140-142-140-142v-200h-200l-142-140-142 140h-200v200l-140 142 140 142v200h200l142 140 142-140h200v-200z" />
<glyph unicode="&#xe1ad;" glyph-name="brightness_low" d="M512 256c142 0 256 114 256 256s-114 256-256 256-256-114-256-256 114-256 256-256zM854 370v-200h-200l-142-140-142 140h-200v200l-140 142 140 142v200h200l142 140 142-140h200v-200l140-142z" />
<glyph unicode="&#xe1ae;" glyph-name="brightness_medium" d="M512 256c142 0 256 114 256 256s-114 256-256 256v-512zM854 370v-200h-200l-142-140-142 140h-200v200l-140 142 140 142v200h200l142 140 142-140h200v-200l140-142z" />
<glyph unicode="&#xe1af;" glyph-name="data_usage" d="M512 214c94 0 178 44 232 112l112-66c-78-106-202-174-344-174-236 0-426 190-426 426 0 222 168 402 384 424v-128c-144-20-256-146-256-296 0-166 132-298 298-298zM554 936c216-22 384-202 384-424 0-62-12-122-36-174l-112 66c12 34 20 70 20 108 0 150-112 276-256 296v128z" />
<glyph unicode="&#xe1b0;" glyph-name="developer_mode" d="M726 214v84h84v-170c0-46-38-86-84-86h-428c-46 0-84 40-84 86v170h84v-84h428zM426 376l-60-60-196 196 196 196 60-60-134-136zM658 316l-60 60 134 136-134 136 60 60 196-196zM298 810v-84h-84v170c0 46 38 86 84 86l428-2c46 0 84-38 84-84v-170h-84v84h-428z" />
<glyph unicode="&#xe1b2;" glyph-name="dvr" d="M298 512v-86h-84v86h84zM298 682v-84h-84v84h84zM810 512v-86h-468v86h468zM810 682v-84h-468v84h468zM896 298v512h-768v-512h768zM896 896c46 0 86-40 86-86l-2-512c0-46-38-84-84-84h-214v-86h-340v86h-214c-46 0-86 38-86 84v512c0 46 40 86 86 86h768z" />
<glyph unicode="&#xe1b6;" glyph-name="location_disabled" d="M694 276l-418 418c-38-50-62-114-62-182 0-166 132-298 298-298 68 0 132 24 182 62zM128 842l54 54 714-714-54-54-88 88c-56-46-124-78-200-86v-88h-84v88c-178 20-320 162-340 340h-88v84h88c8 76 40 144 86 200zM894 554h88v-84h-88c-6-48-20-96-42-136l-64 64c14 34 22 74 22 114 0 166-132 298-298 298-40 0-80-8-114-22l-64 64c42 22 88 36 136 42v88h84v-88c178-20 320-162 340-340z" />
<glyph unicode="&#xe1b7;" glyph-name="location_searching" d="M512 214c166 0 298 132 298 298s-132 298-298 298-298-132-298-298 132-298 298-298zM894 554h88v-84h-88c-20-178-162-320-340-340v-88h-84v88c-178 20-320 162-340 340h-88v84h88c20 178 162 320 340 340v88h84v-88c178-20 320-162 340-340z" />
<glyph unicode="&#xe1b8;" glyph-name="graphic_eq" d="M810 598h86v-172h-86v172zM640 256v512h86v-512h-86zM128 426v172h86v-172h-86zM470 86v852h84v-852h-84zM298 256v512h86v-512h-86z" />
<glyph unicode="&#xe1b9;" glyph-name="network_cell" d="M938 86h-852l852 852v-852z" />
<glyph unicode="&#xe1ba;" glyph-name="network_wifi" d="M872.5 557.172c0.568-0.445 1.068-0.837 1.5-1.172l-362-448-362 448c0.431 0.335 0.931 0.727 1.5 1.172l-135.5 168.828c20 14 210 170 496 170s476-156 496-170z" />
<glyph unicode="&#xe1bb;" glyph-name="nfc" d="M768 768v-512h-512v512h170v-86h-84v-340h340v340h-128v-96c26-14 44-42 44-74 0-46-40-86-86-86s-86 40-86 86c0 32 18 60 44 74v96c0 46 38 86 84 86h214zM854 170v684h-684v-684h684zM854 938c46 0 84-38 84-84v-684c0-46-38-84-84-84h-684c-46 0-84 38-84 84v684c0 46 38 84 84 84h684z" />
<glyph unicode="&#xe1bc;" glyph-name="wallpaper" d="M170 470v-300h300v-84h-300c-46 0-84 38-84 84v300h84zM854 170v300h84v-300c0-46-38-84-84-84h-300v84h300zM854 938c46 0 84-38 84-84v-300h-84v300h-300v84h300zM726 662c0-36-28-64-64-64s-64 28-64 64 28 64 64 64 64-28 64-64zM426 470l128-158 86 114 128-170h-512zM170 854v-300h-84v300c0 46 38 84 84 84h300v-84h-300z" />
<glyph unicode="&#xe1bd;" glyph-name="widgets" d="M710 952l242-242-242-240h186v-342h-342v342h156l-240 240v-156h-342v342h342v-186zM128 128v342h342v-342h-342z" />
<glyph unicode="&#xe1be;" glyph-name="screen_lock_landscape" d="M460 598v-44h104v44c0 28-24 50-52 50s-52-22-52-50zM426 342c-24 0-42 18-42 42v128c0 24 18 42 42 42v44c0 46 38 84 86 84 46 0 86-36 86-84v-44c24 0 42-18 42-42v-128c0-24-18-42-42-42h-172zM810 298v428h-596v-428h596zM896 810c46 0 86-38 86-84v-428c0-46-40-84-86-84h-768c-46 0-86 38-86 84v428c0 46 40 84 86 84h768z" />
<glyph unicode="&#xe1bf;" glyph-name="screen_lock_portrait" d="M726 214v596h-428v-596h428zM726 982c46 0 84-40 84-86v-768c0-46-38-86-84-86h-428c-46 0-84 40-84 86v768c0 46 38 86 84 86h428zM460 598v-44h104v44c0 28-24 50-52 50s-52-22-52-50zM426 342c-24 0-42 18-42 42v128c0 24 18 42 42 42v44c0 46 38 84 86 84 46 0 86-36 86-84v-44c24 0 42-18 42-42v-128c0-24-18-42-42-42h-172z" />
<glyph unicode="&#xe1c0;" glyph-name="screen_lock_rotation" d="M716 918v-22h146v22c0 40-32 72-72 72s-74-32-74-72zM682 640c-24 0-42 18-42 42v172c0 24 18 42 42 42v22c0 58 50 106 108 106s106-48 106-106v-22c24 0 42-18 42-42v-172c0-24-18-42-42-42h-214zM362 150l56 56 162-162-28-2c-268 0-488 208-510 470h64c16-160 116-296 256-362zM992 480c26-24 26-66 0-92l-272-270c-24-26-64-26-90 0l-512 512c-26 24-26 64 0 90l270 272c24 26 66 26 92 0l104-104-60-60-90 88-242-240 484-484 240 242-94 94 60 60z" />
<glyph unicode="&#xe1c1;" glyph-name="screen_rotation" d="M320 108l58 56 162-162-28-2c-268 0-488 208-510 470h64c16-160 114-296 254-362zM632 120l272 272-512 512-272-272zM436 950l514-514c26-24 26-64 0-90l-272-272c-24-26-64-26-90 0l-514 514c-26 24-26 64 0 90l272 272c24 26 64 26 90 0zM704 916l-58-56-162 162 28 2c268 0 488-208 510-470h-64c-16 160-114 296-254 362z" />
<glyph unicode="&#xe1c2;" glyph-name="sd_storage" d="M768 682v172h-86v-172h86zM640 682v172h-86v-172h86zM512 682v172h-86v-172h86zM768 938c46 0 86-38 86-84v-684c0-46-40-84-86-84h-512c-46 0-86 38-86 84l2 512 254 256h342z" />
<glyph unicode="&#xe1c3;" glyph-name="settings_system_daydream" d="M896 212v600h-768v-600h768zM896 896c46 0 86-40 86-86v-596c0-46-40-86-86-86h-768c-46 0-86 40-86 86v596c0 46 40 86 86 86h768zM384 342c-70 0-128 58-128 128 0 66 50 120 114 126h8c24 50 74 86 134 86 76 0 138-56 148-128h2c58 0 106-48 106-106s-48-106-106-106h-278z" />
<glyph unicode="&#xe1c8;" glyph-name="signal_cellular_4_bar" d="M86 86l852 852v-852h-852z" />
<glyph unicode="&#xe1cd;" glyph-name="signal_cellular_connected_no_internet_4_bar" d="M86 86l852 852v-256h-170v-596h-682zM854 86v84h84v-84h-84zM854 256v342h84v-342h-84z" />
<glyph unicode="&#xe1ce;" glyph-name="signal_cellular_no_sim" d="M156 858l746-744-56-56-80 82c-12-6-26-12-40-12h-428c-46 0-84 40-84 86v478l-112 112zM810 810v-498l-484 484 100 100h300c46 0 84-40 84-86z" />
<glyph unicode="&#xe1cf;" glyph-name="signal_cellular_null" d="M938 938v-852h-852zM854 732l-562-562h562v562z" />
<glyph unicode="&#xe1d0;" glyph-name="signal_cellular_off" d="M204 832l734-736-54-54-84 86h-758l378 378-270 272zM896 982v-734l-366 366z" />
<glyph unicode="&#xe1d8;" glyph-name="signal_wifi_4_bar" d="M512 108l-496 618c20 14 210 170 496 170s476-156 496-170z" />
<glyph unicode="&#xe1d9;" glyph-name="signal_wifi_4_bar_lock" d="M662 406v-112l-150-188-494 620c18 12 208 170 494 170s476-158 494-170l-88-112c-12 4-26 4-44 4-120 0-212-92-212-212zM938 342v64c0 34-30 64-64 64s-64-30-64-64v-64h128zM982 342c22 0 42-22 42-44v-170c0-22-20-42-42-42h-214c-22 0-42 20-42 42v170c0 22 20 44 42 44v64c0 60 46 106 106 106s108-46 108-106v-64z" />
<glyph unicode="&#xe1da;" glyph-name="signal_wifi_off" d="M140 962c244.604-245.396 490.948-489.052 734-736l-54-54-142 142-166-206-496 618c10 8 64 52 156 94l-86 88zM1008 726l-232-290-442 440c54 12 114 20 178 20 286 0 476-156 496-170z" />
<glyph unicode="&#xe1db;" glyph-name="storage" d="M170 554v-84h86v84h-86zM86 426v172h852v-172h-852zM256 726v84h-86v-84h86zM86 854h852v-172h-852v172zM170 298v-84h86v84h-86zM86 170v172h852v-172h-852z" />
<glyph unicode="&#xe1e0;" glyph-name="usb" d="M640 726h170v-172h-42v-84c0-48-38-86-86-86h-128v-130c30-16 52-48 52-84 0-52-42-94-94-94s-94 42-94 94c0 36 22 68 52 84v130h-128c-48 0-86 38-86 86v88c-30 16-52 46-52 82 0 52 42 94 94 94s94-42 94-94c0-36-20-66-50-82v-88h128v340h-86l128 172 128-172h-86v-340h128v84h-42v172z" />
<glyph unicode="&#xe1e1;" glyph-name="wifi_lock" d="M938 342v64c0 36-28 64-64 64s-64-28-64-64v-64h128zM982 342c24 0 42-20 42-44v-170c0-24-18-42-42-42h-214c-24 0-42 18-42 42v170c0 24 18 44 42 44v64c0 58 48 106 106 106s108-48 108-106v-64zM874 618c-118 0-212-94-212-212v-122l-150-198-512 682c142 108 320 170 512 170s370-62 512-170l-114-152c-12 2-24 2-36 2z" />
<glyph unicode="&#xe1e2;" glyph-name="wifi_tethering" d="M512 896c236 0 426-190 426-426 0-158-84-296-212-370l-44 74c102 60 172 170 172 296 0 188-154 340-342 340s-342-152-342-340c0-126 68-236 170-296l-42-74c-128 74-212 212-212 370 0 236 190 426 426 426zM768 470c0-94-52-178-128-222l-42 74c50 30 84 84 84 148 0 94-76 170-170 170s-170-76-170-170c0-64 34-118 84-148l-42-74c-76 44-128 128-128 222 0 142 114 256 256 256s256-114 256-256zM512 554c46 0 86-38 86-84s-40-86-86-86-86 40-86 86 40 84 86 84z" />
<glyph unicode="&#xe226;" glyph-name="attach_file" d="M704 768h64v-490c0-130-104-236-234-236s-236 106-236 236v532c0 94 78 172 172 172s170-78 170-172v-448c0-58-48-106-106-106s-108 48-108 106v406h64v-406c0-24 20-42 44-42s42 18 42 42v448c0 58-48 108-106 108s-108-50-108-108v-532c0-94 78-172 172-172s170 78 170 172v490z" />
<glyph unicode="&#xe227;" glyph-name="attach_money" d="M504 558c96-26 200-64 200-186 0-88-66-136-150-152v-92h-128v92c-82 18-150 70-156 164h94c4-50 38-90 126-90 94 0 116 46 116 76 0 40-22 78-128 104-120 28-200 78-200 176 0 82 66 136 148 154v92h128v-94c90-22 136-88 138-162h-94c-2 54-32 90-108 90-72 0-114-34-114-80 0-40 32-66 128-92z" />
<glyph unicode="&#xe228;" glyph-name="border_all" d="M810 554v256h-256v-256h256zM810 214v256h-256v-256h256zM470 554v256h-256v-256h256zM470 214v256h-256v-256h256zM128 896h768v-768h-768v768z" />
<glyph unicode="&#xe229;" glyph-name="border_bottom" d="M214 384v-86h-86v86h86zM128 128v86h768v-86h-768zM214 554v-84h-86v84h86zM810 640v86h86v-86h-86zM810 896h86v-86h-86v86zM214 726v-86h-86v86h86zM810 298v86h86v-86h-86zM810 470v84h86v-84h-86zM726 896v-86h-86v86h86zM554 896v-86h-84v86h84zM726 554v-84h-86v84h86zM554 726v-86h-84v86h84zM214 896v-86h-86v86h86zM554 554v-84h-84v84h84zM384 896v-86h-86v86h86zM554 384v-86h-84v86h84zM384 554v-84h-86v84h86z" />
<glyph unicode="&#xe22a;" glyph-name="border_clear" d="M640 810v86h86v-86h-86zM640 470v84h86v-84h-86zM640 128v86h86v-86h-86zM470 810v86h84v-86h-84zM810 896h86v-86h-86v86zM470 640v86h84v-86h-84zM810 640v86h86v-86h-86zM810 128v86h86v-86h-86zM810 470v84h86v-84h-86zM810 298v86h86v-86h-86zM470 470v84h84v-84h-84zM128 810v86h86v-86h-86zM128 640v86h86v-86h-86zM128 470v84h86v-84h-86zM128 298v86h86v-86h-86zM128 128v86h86v-86h-86zM470 128v86h84v-86h-84zM470 298v86h84v-86h-84zM298 128v86h86v-86h-86zM298 470v84h86v-84h-86zM298 810v86h86v-86h-86z" />
<glyph unicode="&#xe22b;" glyph-name="border_color" d="M0 170h1024v-170h-1024v170zM884 852l-84-84-160 160 84 84c16 16 44 16 60 0l100-100c16-16 16-44 0-60zM758 726l-428-428h-160v160l428 428z" />
<glyph unicode="&#xe22c;" glyph-name="border_horizontal" d="M810 128v86h86v-86h-86zM640 128v86h86v-86h-86zM470 298v86h84v-86h-84zM810 640v86h86v-86h-86zM810 896h86v-86h-86v86zM128 470v84h768v-84h-768zM470 128v86h84v-86h-84zM810 298v86h86v-86h-86zM554 896v-86h-84v86h84zM554 726v-86h-84v86h84zM726 896v-86h-86v86h86zM384 896v-86h-86v86h86zM214 896v-86h-86v86h86zM298 128v86h86v-86h-86zM128 298v86h86v-86h-86zM214 726v-86h-86v86h86zM128 128v86h86v-86h-86z" />
<glyph unicode="&#xe22d;" glyph-name="border_inner" d="M810 298v86h86v-86h-86zM810 128v86h86v-86h-86zM554 896v-342h342v-84h-342v-342h-84v342h-342v84h342v342h84zM640 128v86h86v-86h-86zM810 896h86v-86h-86v86zM810 640v86h86v-86h-86zM726 896v-86h-86v86h86zM214 896v-86h-86v86h86zM384 896v-86h-86v86h86zM128 298v86h86v-86h-86zM214 726v-86h-86v86h86zM298 128v86h86v-86h-86zM128 128v86h86v-86h-86z" />
<glyph unicode="&#xe22e;" glyph-name="border_left" d="M640 810v86h86v-86h-86zM640 470v84h86v-84h-86zM810 128v86h86v-86h-86zM810 470v84h86v-84h-86zM810 896h86v-86h-86v86zM810 298v86h86v-86h-86zM640 128v86h86v-86h-86zM810 640v86h86v-86h-86zM128 128v768h86v-768h-86zM298 470v84h86v-84h-86zM298 810v86h86v-86h-86zM298 128v86h86v-86h-86zM470 470v84h84v-84h-84zM470 640v86h84v-86h-84zM470 810v86h84v-86h-84zM470 298v86h84v-86h-84zM470 128v86h84v-86h-84z" />
<glyph unicode="&#xe22f;" glyph-name="border_outer" d="M384 554v-84h-86v84h86zM554 384v-86h-84v86h84zM810 214v596h-596v-596h596zM128 896h768v-768h-768v768zM726 554v-84h-86v84h86zM554 554v-84h-84v84h84zM554 726v-86h-84v86h84z" />
<glyph unicode="&#xe230;" glyph-name="border_right" d="M470 640v86h84v-86h-84zM470 810v86h84v-86h-84zM470 470v84h84v-84h-84zM640 810v86h86v-86h-86zM640 128v86h86v-86h-86zM810 896h86v-768h-86v768zM640 470v84h86v-84h-86zM470 298v86h84v-86h-84zM128 640v86h86v-86h-86zM128 298v86h86v-86h-86zM128 470v84h86v-84h-86zM470 128v86h84v-86h-84zM128 128v86h86v-86h-86zM298 470v84h86v-84h-86zM298 810v86h86v-86h-86zM128 810v86h86v-86h-86zM298 128v86h86v-86h-86z" />
<glyph unicode="&#xe231;" glyph-name="border_style" d="M810 640v86h86v-86h-86zM128 896h768v-86h-682v-682h-86v768zM810 470v84h86v-84h-86zM810 298v86h86v-86h-86zM470 128v86h84v-86h-84zM298 128v86h86v-86h-86zM810 128v86h86v-86h-86zM640 128v86h86v-86h-86z" />
<glyph unicode="&#xe232;" glyph-name="border_top" d="M640 470v84h86v-84h-86zM810 128v86h86v-86h-86zM470 640v86h84v-86h-84zM640 128v86h86v-86h-86zM810 298v86h86v-86h-86zM128 896h768v-86h-768v86zM810 470v84h86v-84h-86zM810 640v86h86v-86h-86zM470 298v86h84v-86h-84zM128 640v86h86v-86h-86zM128 470v84h86v-84h-86zM128 128v86h86v-86h-86zM128 298v86h86v-86h-86zM470 128v86h84v-86h-84zM470 470v84h84v-84h-84zM298 470v84h86v-84h-86zM298 128v86h86v-86h-86z" />
<glyph unicode="&#xe233;" glyph-name="border_vertical" d="M640 470v84h86v-84h-86zM640 128v86h86v-86h-86zM640 810v86h86v-86h-86zM810 640v86h86v-86h-86zM810 896h86v-86h-86v86zM810 470v84h86v-84h-86zM810 128v86h86v-86h-86zM470 128v768h84v-768h-84zM810 298v86h86v-86h-86zM298 810v86h86v-86h-86zM128 298v86h86v-86h-86zM128 128v86h86v-86h-86zM128 470v84h86v-84h-86zM298 470v84h86v-84h-86zM298 128v86h86v-86h-86zM128 810v86h86v-86h-86zM128 640v86h86v-86h-86z" />
<glyph unicode="&#xe234;" glyph-name="format_align_center" d="M128 896h768v-86h-768v86zM298 726h428v-86h-428v86zM128 470v84h768v-84h-768zM128 128v86h768v-86h-768zM298 384h428v-86h-428v86z" />
<glyph unicode="&#xe235;" glyph-name="format_align_justify" d="M128 896h768v-86h-768v86zM128 640v86h768v-86h-768zM128 470v84h768v-84h-768zM128 298v86h768v-86h-768zM128 128v86h768v-86h-768z" />
<glyph unicode="&#xe236;" glyph-name="format_align_left" d="M128 896h768v-86h-768v86zM128 128v86h768v-86h-768zM128 470v84h768v-84h-768zM640 726v-86h-512v86h512zM640 384v-86h-512v86h512z" />
<glyph unicode="&#xe237;" glyph-name="format_align_right" d="M128 896h768v-86h-768v86zM384 640v86h512v-86h-512zM128 470v84h768v-84h-768zM384 298v86h512v-86h-512zM128 128v86h768v-86h-768z" />
<glyph unicode="&#xe238;" glyph-name="format_bold" d="M576 362c36 0 64 28 64 64s-28 64-64 64h-150v-128h150zM426 746v-128h128c36 0 64 28 64 64s-28 64-64 64h-128zM666 564c56-26 92-82 92-146 0-90-68-162-158-162h-302v598h268c96 0 170-76 170-172 0-44-28-90-70-118z" />
<glyph unicode="&#xe239;" glyph-name="format_clear" d="M256 810h598v-128h-248l-68-160-90 88 30 72h-102l-120 120v8zM140 810l12-10 616-618-54-54-242 242-66-156h-128l104 246-296 296z" />
<glyph unicode="&#xe23a;" glyph-name="format_color_fill" d="M0 170h1024v-170h-1024v170zM810 534c0 0 86-94 86-150 0-46-40-86-86-86s-84 40-84 86c0 56 84 150 84 150zM222 598h410l-206 204zM706 642c26-26 26-66 0-90l-234-234c-12-12-30-20-46-20s-32 8-44 20l-236 234c-26 24-26 64 0 90l220 220-102 102 62 60z" />
<glyph unicode="&#xe23b;" glyph-name="format_color_reset" d="M224 800l624-624-54-54-114 112c-46-40-104-64-168-64-142 0-256 114-256 256 0 52 24 114 56 176l-142 142zM768 426c0-20-2-38-6-56l-366 368c60 86 116 150 116 150s256-292 256-462z" />
<glyph unicode="&#xe23c;" glyph-name="format_color_text" d="M410 512h204l-102 270zM470 896h84l234-598h-96l-46 128h-268l-48-128h-96zM0 170h1024v-170h-1024v170z" />
<glyph unicode="&#xe23d;" glyph-name="format_indent_decrease" d="M470 470v84h426v-84h-426zM470 640v86h426v-86h-426zM128 896h768v-86h-768v86zM128 128v86h768v-86h-768zM128 512l170 170v-340zM470 298v86h426v-86h-426z" />
<glyph unicode="&#xe23e;" glyph-name="format_indent_increase" d="M470 470v84h426v-84h-426zM470 640v86h426v-86h-426zM128 896h768v-86h-768v86zM470 298v86h426v-86h-426zM128 682l170-170-170-170v340zM128 128v86h768v-86h-768z" />
<glyph unicode="&#xe23f;" glyph-name="format_italic" d="M426 854h342v-128h-120l-144-342h94v-128h-342v128h120l144 342h-94v128z" />
<glyph unicode="&#xe240;" glyph-name="format_line_spacing" d="M426 470v84h512v-84h-512zM426 214v84h512v-84h-512zM426 810h512v-84h-512v84zM256 726v-428h106l-148-148-150 148h106v428h-106l150 148 148-148h-106z" />
<glyph unicode="&#xe241;" glyph-name="format_list_bulleted" d="M298 810h598v-84h-598v84zM298 470v84h598v-84h-598zM298 214v84h598v-84h-598zM170 320c36 0 64-30 64-64s-30-64-64-64-64 30-64 64 28 64 64 64zM170 832c36 0 64-28 64-64s-28-64-64-64-64 28-64 64 28 64 64 64zM170 576c36 0 64-28 64-64s-28-64-64-64-64 28-64 64 28 64 64 64z" />
<glyph unicode="&#xe242;" glyph-name="format_list_numbered" d="M298 470v84h598v-84h-598zM298 214v84h598v-84h-598zM298 810h598v-84h-598v84zM86 554v44h128v-40l-78-88h78v-44h-128v40l76 88h-76zM128 682v128h-42v44h84v-172h-42zM86 298v44h128v-172h-128v44h84v20h-42v44h42v20h-84z" />
<glyph unicode="&#xe243;" glyph-name="format_paint" d="M768 854h128v-342h-342v-384c0-24-18-42-42-42h-86c-24 0-42 18-42 42v470h426v170h-42v-42c0-24-18-44-42-44h-512c-24 0-44 20-44 44v170c0 24 20 42 44 42h512c24 0 42-18 42-42v-42z" />
<glyph unicode="&#xe244;" glyph-name="format_quote" d="M598 298l84 172h-128v256h256v-256l-84-172h-128zM256 298l86 172h-128v256h256v-256l-86-172h-128z" />
<glyph unicode="&#xe245;" glyph-name="format_size" d="M128 512v128h384v-128h-128v-298h-128v298h-128zM384 854h554v-128h-212v-512h-128v512h-214v128z" />
<glyph unicode="&#xe246;" glyph-name="format_strikethrough" d="M128 426v86h768v-86h-768zM214 854h596v-128h-212v-128h-172v128h-212v128zM426 214v128h172v-128h-172z" />
<glyph unicode="&#xe247;" glyph-name="format_textdirection_l_to_r" d="M896 256l-170-170v128h-512v84h512v128zM384 598c-94 0-170 76-170 170s76 170 170 170h342v-84h-86v-470h-86v470h-84v-470h-86v214z" />
<glyph unicode="&#xe248;" glyph-name="format_textdirection_r_to_l" d="M342 298h512v-84h-512v-128l-172 170 172 170v-128zM426 598c-94 0-170 76-170 170s76 170 170 170h342v-84h-86v-470h-84v470h-86v-470h-86v214z" />
<glyph unicode="&#xe249;" glyph-name="format_underlined" d="M214 214h596v-86h-596v86zM512 298c-142 0-256 114-256 256v342h106v-342c0-82 68-148 150-148s150 66 150 148v342h106v-342c0-142-114-256-256-256z" />
<glyph unicode="&#xe24a;" glyph-name="functions" d="M768 854v-128h-298l212-214-212-214h298v-128h-512v86l278 256-278 256v86h512z" />
<glyph unicode="&#xe24c;" glyph-name="insert_comment" d="M768 682v86h-512v-86h512zM768 554v86h-512v-86h512zM768 426v86h-512v-86h512zM854 938c46 0 84-38 84-84v-768l-170 170h-598c-46 0-84 40-84 86v512c0 46 38 84 84 84h684z" />
<glyph unicode="&#xe24d;" glyph-name="insert_drive_file" d="M554 640h236l-236 234v-234zM256 938h342l256-256v-512c0-46-40-84-86-84h-512c-46 0-86 38-86 84l2 684c0 46 38 84 84 84z" />
<glyph unicode="&#xe24f;" glyph-name="insert_invitation" d="M810 214v468h-596v-468h596zM682 982h86v-86h42c46 0 86-40 86-86v-596c0-46-40-86-86-86h-596c-48 0-86 40-86 86v596c0 46 38 86 86 86h42v86h86v-86h340v86zM726 512v-214h-214v214h214z" />
<glyph unicode="&#xe252;" glyph-name="merge_type" d="M320 682l192 192 192-192h-150v-272l-256-256-60 60 232 230v238h-150zM726 154l-146 144 60 60 146-144z" />
<glyph unicode="&#xe253;" glyph-name="mode_comment" d="M938 854v-768l-170 170h-598c-46 0-84 40-84 86v512c0 46 38 84 84 84h684c46 0 84-38 84-84z" />
<glyph unicode="&#xe254;" glyph-name="mode_edit" d="M884 724l-78-78-160 160 78 78c16 16 44 16 60 0l100-100c16-16 16-44 0-60zM128 288l472 472 160-160-472-472h-160v160z" />
<glyph unicode="&#xe255;" glyph-name="publish" d="M214 426l298 300 298-300h-170v-256h-256v256h-170zM214 854h596v-86h-596v86z" />
<glyph unicode="&#xe256;" glyph-name="space_bar" d="M768 640h86v-256h-684v256h86v-170h512v170z" />
<glyph unicode="&#xe257;" glyph-name="strikethrough_s" d="M400 464c0-76.243 48.309-108 124-108 52.313 0 98 21.34 98 72 0 47.832-25.37 58.685-60 76-6 2-16 6-24 8h-410v86h768v-86h-166c2-4 6-10 8-14 8-20 14-44 14-70 0-92.509-60.376-138.965-134-160-28-8-58-12-92-12-20 0-42 2-62 6-43.831 8.766-81.207 20.905-112 44-45.673 34.254-78 79.826-78 158h126zM622 704c0 61.554-39.204 90-102 90-45.146 0-79.257-14.514-94-44-4-8-6-18-6-28 0-20 12-38 32-52 16-10 32-20 60-30h-196c-2 4-6 6-8 10-12 20-16 44-16 72 0 57.483 29.861 98.689 64 126 41.082 28.758 95.625 48 166 48 70.131 0 128.265-20.039 166-54 35.121-31.608 62-75.894 62-138h-128z" />
<glyph unicode="&#xe258;" glyph-name="vertical_align_bottom" d="M170 214h684v-86h-684v86zM682 470l-170-172-170 172h128v426h84v-426h128z" />
<glyph unicode="&#xe259;" glyph-name="vertical_align_center" d="M170 554h684v-84h-684v84zM682 810l-170-170-170 170h128v172h84v-172h128zM342 214l170 170 170-170h-128v-172h-84v172h-128z" />
<glyph unicode="&#xe25a;" glyph-name="vertical_align_top" d="M170 896h684v-86h-684v86zM342 554l170 172 170-172h-128v-426h-84v426h-128z" />
<glyph unicode="&#xe25b;" glyph-name="wrap_text" d="M726 554c94 0 170-76 170-170s-76-170-170-170h-86v-86l-128 128 128 128v-86h96c46 0 86 40 86 86s-40 86-86 86h-566v84h556zM854 810v-84h-684v84h684zM170 214v84h256v-84h-256z" />
<glyph unicode="&#xe25c;" glyph-name="money_off" d="M228 850l622-624-54-54-94 96c-26-24-64-40-104-48v-92h-128v92c-82 18-152 70-158 164h94c4-50 40-90 128-90 58 0 88 20 102 40l-150 148c-100 30-166 80-166 168l-146 146zM534 730c-26 0-48-4-66-12l-62 62c20 10 42 18 64 24v92h128v-94c90-22 134-88 136-162h-94c-2 54-30 90-106 90z" />
<glyph unicode="&#xe25d;" glyph-name="drag_handle" d="M170 384v86h684v-86h-684zM854 640v-86h-684v86h684z" />
<glyph unicode="&#xe25e;" glyph-name="format_shapes" d="M456 480h112l-56 164zM586 426h-150l-30-84h-70l146 384h60l144-384h-68zM810 810h86v86h-86v-86zM896 128v86h-86v-86h86zM726 214v84h84v428h-84v84h-428v-84h-84v-428h84v-84h428zM214 128v86h-86v-86h86zM128 896v-86h86v86h-86zM982 726h-86v-428h86v-256h-256v86h-428v-86h-256v256h86v428h-86v256h256v-86h428v86h256v-256z" />
<glyph unicode="&#xe25f;" glyph-name="highlight" d="M724 744l90 90 60-60-90-92zM150 774l60 60 90-90-60-62zM470 938h84v-128h-84v128zM256 426v214h512v-214l-128-128v-212h-256v212z" />
<glyph unicode="&#xe260;" glyph-name="linear_scale" d="M832 618c58 0 106-48 106-106s-48-106-106-106c-44 0-82 26-98 64h-124c-16-38-54-64-98-64s-82 26-98 64h-124c-16-38-54-64-98-64-58 0-106 48-106 106s48 106 106 106c44 0 82-26 98-64h124c16 38 54 64 98 64s82-26 98-64h124c16 38 54 64 98 64z" />
<glyph unicode="&#xe261;" glyph-name="short_text" d="M170 470h428v-86h-428v86zM170 640h684v-86h-684v86z" />
<glyph unicode="&#xe262;" glyph-name="text_fields" d="M918 640v-128h-128v-298h-128v298h-128v128h384zM106 854h556v-128h-214v-512h-128v512h-214v128z" />
<glyph unicode="&#xe263;" glyph-name="monetization_on" d="M572 252c74 14 134 56 134 134 0 108-94 146-180 168s-112 46-112 82c0 40 38 70 102 70 68 0 92-32 94-80h84c-2 66-42 124-122 144v84h-114v-84c-74-16-132-62-132-136 0-88 72-130 178-156 96-22 114-56 114-92 0-26-18-68-102-68-78 0-110 36-114 80h-84c4-82 68-128 140-144v-84h114v82zM512 938c236 0 426-190 426-426s-190-426-426-426-426 190-426 426 190 426 426 426z" />
<glyph unicode="&#xe264;" glyph-name="title" d="M214 854h596v-128h-234v-512h-128v512h-234v128z" />
<glyph unicode="&#xe2bc;" glyph-name="attachment" d="M86 490c0 130 104 236 234 236h448c94 0 170-78 170-172s-76-170-170-170h-362c-58 0-108 48-108 106s50 108 108 108h320v-86h-324c-24 0-24-42 0-42h366c46 0 86 38 86 84s-40 86-86 86h-448c-82 0-150-68-150-150s68-148 150-148h406v-86h-406c-130 0-234 104-234 234z" />
<glyph unicode="&#xe2be;" glyph-name="cloud_circle" d="M704 342c58 0 106 48 106 106s-48 106-106 106h-22c0 94-76 172-170 172-80 0-146-56-164-130l-6 2c-70 0-128-58-128-128s58-128 128-128h362zM512 938c236 0 426-190 426-426s-190-426-426-426-426 190-426 426 190 426 426 426z" />
<glyph unicode="&#xe2bf;" glyph-name="cloud_done" d="M426 298l282 282-60 60-222-220-88 88-60-60zM826 596c110-8 198-100 198-212 0-118-96-214-214-214h-554c-142 0-256 114-256 256 0 132 100 240 228 254 54 102 160 174 284 174 156 0 284-110 314-258z" />
<glyph unicode="&#xe2c0;" glyph-name="cloud_download" d="M726 470h-128v170h-172v-170h-128l214-214zM826 596c110-8 198-100 198-212 0-118-96-214-214-214h-554c-142 0-256 114-256 256 0 132 100 240 228 254 54 102 160 174 284 174 156 0 284-110 314-258z" />
<glyph unicode="&#xe2c1;" glyph-name="cloud_off" d="M330 598h-74c-94 0-170-78-170-172s76-170 170-170h416zM128 800l54 54 714-714-54-54-86 84h-500c-142 0-256 114-256 256 0 138 110 250 246 256zM826 596c110-8 198-100 198-212 0-72-36-136-90-174l-62 62c40 22 66 64 66 112 0 70-58 128-128 128h-64v22c0 130-104 234-234 234-40 0-76-8-108-26l-64 62c50 32 108 50 172 50 156 0 284-110 314-258z" />
<glyph unicode="&#xe2c2;" glyph-name="cloud_queue" d="M810 256c70 0 128 58 128 128s-58 128-128 128h-64v22c0 130-104 234-234 234-108 0-198-72-226-170h-30c-94 0-170-78-170-172s76-170 170-170h554zM826 596c110-8 198-100 198-212 0-118-96-214-214-214h-554c-142 0-256 114-256 256 0 132 100 240 228 254 54 102 160 174 284 174 156 0 284-110 314-258z" />
<glyph unicode="&#xe2c3;" glyph-name="cloud_upload" d="M598 470h128l-214 212-214-212h128v-172h172v172zM826 596c110-8 198-100 198-212 0-118-96-214-214-214h-554c-142 0-256 114-256 256 0 132 100 240 228 254 54 102 160 174 284 174 156 0 284-110 314-258z" />
<glyph unicode="&#xe2c6;" glyph-name="file_upload" d="M214 256h596v-86h-596v86zM384 342v256h-170l298 298 298-298h-170v-256h-256z" />
<glyph unicode="&#xe2c7;" glyph-name="folder" d="M426 854l86-86h342c46 0 84-40 84-86v-426c0-46-38-86-84-86h-684c-46 0-84 40-84 86v512c0 46 38 86 84 86h256z" />
<glyph unicode="&#xe2c8;" glyph-name="folder_open" d="M854 256v426h-684v-426h684zM854 768c46 0 84-40 84-86v-426c0-46-38-86-84-86h-684c-46 0-84 40-84 86v512c0 46 38 86 84 86h256l86-86h342z" />
<glyph unicode="&#xe2c9;" glyph-name="folder_shared" d="M810 298v44c0 56-114 84-170 84s-170-28-170-84v-44h340zM640 640c-46 0-86-40-86-86s40-84 86-84 86 38 86 84-40 86-86 86zM854 768c46 0 84-40 84-86v-426c0-46-38-86-84-86h-684c-46 0-84 40-84 86v512c0 46 38 86 84 86h256l86-86h342z" />
<glyph unicode="&#xe2cc;" glyph-name="create_new_folder" d="M810 426v86h-128v128h-84v-128h-128v-86h128v-128h84v128h128zM854 768c48 0 84-38 84-86v-426c0-48-36-86-84-86h-684c-48 0-84 38-84 86v512c0 48 36 86 84 86h256l86-86h342z" />
<glyph unicode="&#xe307;" glyph-name="cast" d="M42 598c258 0 470-210 470-470h-86c0 212-172 384-384 384v86zM42 426c166 0 300-132 300-298h-86c0 118-96 214-214 214v84zM42 256c70 0 128-58 128-128h-128v128zM896 896c46 0 86-40 86-86v-596c0-46-40-86-86-86h-298v86h298v596h-768v-128h-86v128c0 46 40 86 86 86h768z" />
<glyph unicode="&#xe308;" glyph-name="cast_connected" d="M896 896c46 0 86-40 86-86v-596c0-46-40-86-86-86h-298v86h298v596h-768v-128h-86v128c0 46 40 86 86 86h768zM42 598c258 0 470-210 470-470h-86c0 212-172 384-384 384v86zM810 726v-428h-240c-54 168-188 304-356 358v70h596zM42 426c166 0 300-132 300-298h-86c0 118-96 214-214 214v84zM42 256c70 0 128-58 128-128h-128v128z" />
<glyph unicode="&#xe30b;" glyph-name="desktop_mac" d="M896 426v428h-768v-428h768zM896 938c46 0 86-38 86-84v-512c0-46-40-86-86-86h-298l84-128v-42h-340v42l84 128h-298c-46 0-86 40-86 86v512c0 46 40 84 86 84h768z" />
<glyph unicode="&#xe30c;" glyph-name="desktop_windows" d="M896 342v512h-768v-512h768zM896 938c46 0 86-38 86-84v-512c0-46-40-86-86-86h-298v-86h84v-84h-340v84h84v86h-298c-46 0-86 40-86 86v512c0 46 40 84 86 84h768z" />
<glyph unicode="&#xe30d;" glyph-name="developer_board" d="M512 554h170v-256h-170v256zM256 726h214v-214h-214v214zM512 726h170v-128h-170v128zM256 470h214v-172h-214v172zM768 214v596h-598v-596h598zM938 640h-84v-86h84v-84h-84v-86h84v-86h-84v-84c0-46-40-86-86-86h-598c-46 0-84 40-84 86v596c0 46 38 86 84 86h598c46 0 86-40 86-86v-84h84v-86z" />
<glyph unicode="&#xe30e;" glyph-name="dock" d="M682 384v426h-340v-426h340zM682 980c46 0 86-38 86-84v-598c0-46-40-84-86-84h-340c-46 0-86 38-86 84v598c0 46 40 86 86 86zM342 42v86h340v-86h-340z" />
<glyph unicode="&#xe310;" glyph-name="headset" d="M512 982c212 0 384-172 384-384v-300c0-70-58-128-128-128h-128v342h170v86c0 166-132 298-298 298s-298-132-298-298v-86h170v-342h-128c-70 0-128 58-128 128v300c0 212 172 384 384 384z" />
<glyph unicode="&#xe311;" glyph-name="headset_mic" d="M512 982c212 0 384-172 384-384v-428c0-70-58-128-128-128h-256v86h298v42h-170v342h170v86c0 166-132 298-298 298s-298-132-298-298v-86h170v-342h-128c-70 0-128 58-128 128v300c0 212 172 384 384 384z" />
<glyph unicode="&#xe312;" glyph-name="keyboard" d="M810 598v84h-84v-84h84zM810 470v84h-84v-84h84zM682 598v84h-84v-84h84zM682 470v84h-84v-84h84zM682 298v86h-340v-86h340zM298 598v84h-84v-84h84zM298 470v84h-84v-84h84zM342 554v-84h84v84h-84zM342 682v-84h84v84h-84zM470 554v-84h84v84h-84zM470 682v-84h84v84h-84zM854 810c46 0 84-38 84-84v-428c0-46-38-84-84-84h-684c-46 0-84 38-84 84v428c0 46 38 84 84 84h684z" />
<glyph unicode="&#xe313;" glyph-name="keyboard_arrow_down" d="M316 690l196-196 196 196 60-60-256-256-256 256z" />
<glyph unicode="&#xe314;" glyph-name="keyboard_arrow_left" d="M658 338l-60-60-256 256 256 256 60-60-196-196z" />
<glyph unicode="&#xe315;" glyph-name="keyboard_arrow_right" d="M366 326l196 196-196 196 60 60 256-256-256-256z" />
<glyph unicode="&#xe316;" glyph-name="keyboard_arrow_up" d="M316 366l-60 60 256 256 256-256-60-60-196 196z" />
<glyph unicode="&#xe317;" glyph-name="keyboard_backspace" d="M896 554v-84h-604l152-154-60-60-256 256 256 256 60-60-152-154h604z" />
<glyph unicode="&#xe318;" glyph-name="keyboard_capslock" d="M256 256v86h512v-86h-512zM512 666l-196-196-60 60 256 256 256-256-60-60z" />
<glyph unicode="&#xe31a;" glyph-name="keyboard_hide" d="M512 42l-170 172h340zM810 682v86h-84v-86h84zM810 554v86h-84v-86h84zM682 682v86h-84v-86h84zM682 554v86h-84v-86h84zM682 384v86h-340v-86h340zM298 682v86h-84v-86h84zM298 554v86h-84v-86h84zM342 640v-86h84v86h-84zM342 768v-86h84v86h-84zM470 640v-86h84v86h-84zM470 768v-86h84v86h-84zM854 896c46 0 84-40 84-86v-426c0-46-38-86-84-86h-684c-46 0-84 40-84 86v426c0 46 38 86 84 86h684z" />
<glyph unicode="&#xe31b;" glyph-name="keyboard_return" d="M810 726h86v-256h-648l154-154-60-60-256 256 256 256 60-60-154-154h562v172z" />
<glyph unicode="&#xe31c;" glyph-name="keyboard_tab" d="M854 768h84v-512h-84v512zM494 708l60 60 256-256-256-256-60 60 154 154h-606v84h606z" />
<glyph unicode="&#xe31d;" glyph-name="keyboard_voice" d="M738 512h72c0-146-116-266-256-286v-140h-84v140c-140 20-256 140-256 286h72c0-128 108-218 226-218s226 90 226 218zM512 384c-70 0-128 58-128 128v256c0 70 58 128 128 128s128-58 128-128v-256c0-70-58-128-128-128z" />
<glyph unicode="&#xe31e;" glyph-name="laptop" d="M170 768v-426h684v426h-684zM854 256h170v-86h-1024v86h170c-46 0-84 40-84 86v426c0 46 38 86 84 86h684c46 0 84-40 84-86v-426c0-46-38-86-84-86z" />
<glyph unicode="&#xe31f;" glyph-name="laptop_chromebook" d="M854 384v426h-684v-426h684zM598 256v42h-172v-42h172zM938 256h86v-86h-1024v86h86v640h852v-640z" />
<glyph unicode="&#xe320;" glyph-name="laptop_mac" d="M512 214c24 0 42 18 42 42s-18 42-42 42-42-18-42-42 18-42 42-42zM170 810v-468h684v468h-684zM854 256h170c0-46-40-86-86-86h-852c-46 0-86 40-86 86h170c-46 0-84 40-84 86v468c0 46 38 86 84 86h684c46 0 84-40 84-86v-468c0-46-38-86-84-86z" />
<glyph unicode="&#xe321;" glyph-name="laptop_windows" d="M170 810v-426h684v426h-684zM854 256h170v-86h-1024v86h170v42c-46 0-84 40-84 86v426c0 46 38 86 84 86h684c46 0 84-40 84-86v-426c0-46-38-86-84-86v-42z" />
<glyph unicode="&#xe322;" glyph-name="memory" d="M726 298v428h-428v-428h428zM896 554h-86v-84h86v-86h-86v-86c0-46-38-84-84-84h-86v-86h-86v86h-84v-86h-86v86h-86c-46 0-84 38-84 84v86h-86v86h86v84h-86v86h86v86c0 46 38 84 84 84h86v86h86v-86h84v86h86v-86h86c46 0 84-38 84-84v-86h86v-86zM554 470v84h-84v-84h84zM640 640v-256h-256v256h256z" />
<glyph unicode="&#xe323;" glyph-name="mouse" d="M470 978v-338h-300c0 174 132 318 300 338zM170 384v170h684v-170c0-188-154-342-342-342s-342 154-342 342zM554 978c168-20 300-164 300-338h-300v338z" />
<glyph unicode="&#xe324;" glyph-name="phone_android" d="M736 256v598h-448v-598h448zM598 128v42h-172v-42h172zM682 982c70 0 128-58 128-128v-684c0-70-58-128-128-128h-340c-70 0-128 58-128 128v684c0 70 58 128 128 128h340z" />
<glyph unicode="&#xe325;" glyph-name="phone_iphone" d="M682 256v598h-384v-598h384zM490 86c36 0 64 28 64 64s-28 64-64 64-64-28-64-64 28-64 64-64zM662 982c58 0 106-50 106-108v-724c0-58-48-108-106-108h-342c-58 0-106 50-106 108v724c0 58 48 108 106 108h342z" />
<glyph unicode="&#xe326;" glyph-name="phonelink" d="M938 298v300h-170v-300h170zM982 682c24 0 42-18 42-42v-426c0-24-18-44-42-44h-256c-24 0-44 20-44 44v426c0 24 20 42 44 42h256zM170 768v-470h428v-128h-598v128h86v470c0 46 38 86 84 86h768v-86h-768z" />
<glyph unicode="&#xe327;" glyph-name="phonelink_off" d="M982 682c24 0 42-18 42-42v-426c0-24-18-44-42-44h-8l-128 128h92v300h-170v-222l-86 86v178c0 24 20 42 44 42h256zM170 756v-458h458zM82 954c276.214-276.452 551.97-553.364 828-830l-54-54-100 100h-756v128h86v470c0 20 8 40 20 54l-78 78zM938 768h-562l-86 86h648v-86z" />
<glyph unicode="&#xe328;" glyph-name="router" d="M640 256v86h-86v-86h86zM490 256v86h-84v-86h84zM342 256v86h-86v-86h86zM810 470c46 0 86-40 86-86v-170c0-46-40-86-86-86h-596c-46 0-86 40-86 86v170c0 46 40 86 86 86h426v170h86v-170h84zM824 738l-34-34c-30 30-70 42-108 42s-76-12-106-42l-34 34c38 38 88 60 140 60s104-22 142-60zM862 772c-52 46-116 72-180 72s-126-26-178-72l-34 34c60 60 136 90 212 90s154-30 214-90z" />
<glyph unicode="&#xe329;" glyph-name="scanner" d="M810 298v86h-426v-86h426zM298 298v86h-84v-86h84zM844 568c30-8 52-44 52-78v-234c0-46-40-86-86-86h-596c-46 0-86 40-86 86v170c0 46 40 86 86 86h536l-600 218 30 80z" />
<glyph unicode="&#xe32a;" glyph-name="security" d="M512 982l384-172v-256c0-236-164-458-384-512-220 54-384 276-384 512v256zM512 512v-382c158 50 276 206 298 382h-298zM512 512v376l-298-132v-244h298z" />
<glyph unicode="&#xe32b;" glyph-name="sim_card" d="M726 384v170h-86v-170h86zM554 470v84h-84v-84h84zM554 214v170h-84v-170h84zM384 384v170h-86v-170h86zM726 214v84h-86v-84h86zM384 214v84h-86v-84h86zM852 854l2-684c0-46-40-84-86-84h-512c-46 0-86 38-86 84v512l256 256h342c46 0 84-38 84-84z" />
<glyph unicode="&#xe32d;" glyph-name="speaker" d="M512 512c70 0 128-58 128-128s-58-128-128-128-128 58-128 128 58 128 128 128zM512 170c118 0 214 96 214 214s-96 214-214 214-214-96-214-214 96-214 214-214zM512 854c-48 0-86-40-86-86s38-86 86-86c46 0 86 40 86 86s-40 86-86 86zM726 938c46 0 84-38 84-84v-684c0-46-38-84-84-84h-428c-46 0-84 38-84 84v684c0 46 38 84 84 84h428z" />
<glyph unicode="&#xe32e;" glyph-name="speaker_group" d="M256 810v-682h426v-86h-426c-48 0-86 40-86 86v682h86zM490 490c0 58 50 108 108 108s106-50 106-108-48-106-106-106-108 48-108 106zM598 320c94 0 170 76 170 170s-76 172-170 172-172-78-172-172 78-170 172-170zM598 896c-46 0-86-38-86-86s40-84 86-84 84 36 84 84-38 86-84 86zM776 982c42 0 78-36 78-78v-614c0-42-36-76-78-76h-358c-42 0-76 34-76 76v614c0 42 34 78 76 78h358z" />
<glyph unicode="&#xe32f;" glyph-name="tablet" d="M810 256v512h-596v-512h596zM896 854c46 0 86-40 86-86l-2-512c0-46-38-86-84-86h-768c-46 0-86 40-86 86v512c0 46 40 86 86 86h768z" />
<glyph unicode="&#xe330;" glyph-name="tablet_android" d="M822 214v682h-620v-682h620zM598 86v42h-172v-42h172zM768 1024c70 0 128-58 128-128v-768c0-70-58-128-128-128h-512c-70 0-128 58-128 128v768c0 70 58 128 128 128h512z" />
<glyph unicode="&#xe331;" glyph-name="tablet_mac" d="M810 214v682h-640v-682h640zM490 42c36 0 64 28 64 64s-28 64-64 64-64-28-64-64 28-64 64-64zM790 1024c58 0 106-48 106-106v-812c0-58-48-106-106-106h-598c-58 0-106 48-106 106v812c0 58 48 106 106 106h598z" />
<glyph unicode="&#xe332;" glyph-name="toys" d="M512 512c0-128-106-234-234-234s-236 106-236 234h470zM512 512c-128 0-234 106-234 234s106 236 234 236v-470zM512 512c128 0 234-106 234-234s-106-236-234-236v470zM512 512c0 128 106 234 234 234s236-106 236-234h-470z" />
<glyph unicode="&#xe333;" glyph-name="tv" d="M896 298v512h-768v-512h768zM896 896c46 0 86-40 86-86l-2-512c0-46-38-84-84-84h-214v-86h-340v86h-214c-46 0-86 38-86 84v512c0 46 40 86 86 86h768z" />
<glyph unicode="&#xe334;" glyph-name="watch" d="M256 512c0-142 114-256 256-256s256 114 256 256-114 256-256 256-256-114-256-256zM854 512c0-108-52-206-130-268l-42-244h-340l-42 244c-80 62-130 160-130 268s50 206 130 268l42 244h340l42-244c78-62 130-160 130-268z" />
<glyph unicode="&#xe335;" glyph-name="device_hub" d="M726 342h170v-214h-214v130l-170 180-170-180v-130h-214v214h170l172 170v136c-50 18-86 64-86 120 0 70 58 128 128 128s128-58 128-128c0-56-36-102-86-120v-136z" />
<glyph unicode="&#xe336;" glyph-name="power_input" d="M682 384v86h214v-86h-214zM384 384v86h214v-86h-214zM86 384v86h212v-86h-212zM86 640h810v-86h-810v86z" />
<glyph unicode="&#xe337;" glyph-name="devices_other" d="M896 256v342h-170v-342h170zM938 682c22 0 44-20 44-42v-426c0-22-22-44-44-44h-256c-22 0-42 22-42 44v426c0 22 20 42 42 42h256zM470 278c36 0 64 28 64 64s-28 64-64 64-64-28-64-64 28-64 64-64zM554 512v-76c26-24 44-56 44-94s-18-72-44-96v-76h-170v76c-26 24-42 58-42 96s16 70 42 94v76h170zM128 768v-512h170v-86h-170c-46 0-86 40-86 86v512c0 46 40 86 86 86h768v-86h-768z" />
<glyph unicode="&#xe338;" glyph-name="videogame_asset" d="M832 512c36 0 64 28 64 64s-28 64-64 64-64-28-64-64 28-64 64-64zM662 384c36 0 64 28 64 64s-28 64-64 64-64-28-64-64 28-64 64-64zM470 470v84h-128v128h-86v-128h-128v-84h128v-128h86v128h128zM896 768c46 0 86-40 86-86v-340c0-46-40-86-86-86h-768c-46 0-86 40-86 86v340c0 46 40 86 86 86h768z" />
<glyph unicode="&#xe39e;" glyph-name="adjust" d="M640 512c0-70-58-128-128-128s-128 58-128 128 58 128 128 128 128-58 128-128zM512 170c188 0 342 154 342 342s-154 342-342 342-342-154-342-342 154-342 342-342zM512 938c236 0 426-190 426-426s-190-426-426-426-426 190-426 426 190 426 426 426z" />
<glyph unicode="&#xe39f;" glyph-name="assistant" d="M592 474l176 80-176 80-80 176-80-176-176-80 176-80 80-176zM810 938c46 0 86-38 86-84v-598c0-46-40-86-86-86h-170l-128-128-128 128h-170c-46 0-86 40-86 86v598c0 46 40 84 86 84h596z" />
<glyph unicode="&#xe3a1;" glyph-name="audiotrack" d="M512 896h298v-128h-170v-470h-2c-10-96-92-170-190-170-106 0-192 86-192 192s86 192 192 192c22 0 44-4 64-12v396z" />
<glyph unicode="&#xe3a2;" glyph-name="blur_circular" d="M598 470c24 0 42-20 42-44s-18-42-42-42-44 18-44 42 20 44 44 44zM598 320c12 0 20-10 20-22s-8-20-20-20-22 8-22 20 10 22 22 22zM512 170c188 0 342 154 342 342s-154 342-342 342-342-154-342-342 154-342 342-342zM512 938c236 0 426-190 426-426s-190-426-426-426-426 190-426 426 190 426 426 426zM726 618c12 0 20-8 20-20s-8-22-20-22-22 10-22 22 10 20 22 20zM726 448c12 0 20-10 20-22s-8-20-20-20-22 8-22 20 10 22 22 22zM598 704c-12 0-22 10-22 22s10 20 22 20 20-8 20-20-8-22-20-22zM598 640c24 0 42-18 42-42s-18-44-42-44-44 20-44 44 20 42 44 42zM426 704c-12 0-20 10-20 22s8 20 20 20 22-8 22-20-10-22-22-22zM298 448c12 0 22-10 22-22s-10-20-22-20-20 8-20 20 8 22 20 22zM426 320c12 0 22-10 22-22s-10-20-22-20-20 8-20 20 8 22 20 22zM298 618c12 0 22-8 22-20s-10-22-22-22-20 10-20 22 8 20 20 20zM426 470c24 0 44-20 44-44s-20-42-44-42-42 18-42 42 18 44 42 44zM426 640c24 0 44-18 44-42s-20-44-44-44-42 20-42 44 18 42 42 42z" />
<glyph unicode="&#xe3a3;" glyph-name="blur_linear" d="M554 298c-24 0-42 20-42 44s18 42 42 42 44-18 44-42-20-44-44-44zM554 470c-24 0-42 18-42 42s18 42 42 42 44-18 44-42-20-42-44-42zM554 640c-24 0-42 18-42 42s18 44 42 44 44-20 44-44-20-42-44-42zM726 490c-12 0-22 10-22 22s10 22 22 22 20-10 20-22-8-22-20-22zM726 662c-12 0-22 8-22 20s10 22 22 22 20-10 20-22-8-20-20-20zM128 896h768v-86h-768v86zM726 320c-12 0-22 10-22 22s10 20 22 20 20-8 20-20-8-22-20-22zM384 298c-24 0-42 20-42 44s18 42 42 42 42-18 42-42-18-44-42-44zM214 448c-36 0-64 28-64 64s28 64 64 64 64-28 64-64-28-64-64-64zM214 618c-36 0-64 28-64 64s28 64 64 64 64-28 64-64-28-64-64-64zM128 128v86h768v-86h-768zM384 640c-24 0-42 18-42 42s18 44 42 44 42-20 42-44-18-42-42-42zM384 470c-24 0-42 18-42 42s18 42 42 42 42-18 42-42-18-42-42-42zM214 278c-36 0-64 28-64 64s28 64 64 64 64-28 64-64-28-64-64-64z" />
<glyph unicode="&#xe3a4;" glyph-name="blur_off" d="M128 448c12 0 22-10 22-22s-10-20-22-20-22 8-22 20 10 22 22 22zM256 298c24 0 42-18 42-42s-18-42-42-42-42 18-42 42 18 42 42 42zM426 150c12 0 22-10 22-22s-10-22-22-22-20 10-20 22 8 22 20 22zM128 618c12 0 22-8 22-20s-10-22-22-22-22 10-22 22 10 20 22 20zM256 470c24 0 42-20 42-44s-18-42-42-42-42 18-42 42 18 44 42 44zM896 448c12 0 22-10 22-22s-10-20-22-20-22 8-22 20 10 22 22 22zM426 298c24 0 44-18 44-42s-20-42-44-42-42 18-42 42 18 42 42 42zM106 800l54 54 694-694-56-54-160 162c2-4 2-8 2-12 0-24-18-42-42-42s-44 18-44 42 20 42 44 42c4 0 8 0 12-2l-120 120c-4-30-32-54-64-54-36 0-64 28-64 64 0 32 24 60 54 64l-120 120c2-4 2-8 2-12 0-24-18-44-42-44s-42 20-42 44 18 42 42 42l12-2zM598 150c12 0 20-10 20-22s-8-22-20-22-22 10-22 22 10 22 22 22zM768 726c-24 0-42 18-42 42s18 42 42 42 42-18 42-42-18-42-42-42zM768 554c-24 0-42 20-42 44s18 42 42 42 42-18 42-42-18-44-42-44zM768 384c-24 0-42 18-42 42s18 44 42 44 42-20 42-44-18-42-42-42zM426 726c-24 0-42 18-42 42s18 42 42 42 44-18 44-42-20-42-44-42zM896 576c-12 0-22 10-22 22s10 20 22 20 22-8 22-20-10-22-22-22zM426 874c-12 0-20 10-20 22s8 22 20 22 22-10 22-22-10-22-22-22zM598 874c-12 0-22 10-22 22s10 22 22 22 20-10 20-22-8-22-20-22zM588 534c-28 4-50 26-54 54v10c0 36 28 64 64 64s64-28 64-64-28-64-64-64h-10zM598 726c-24 0-44 18-44 42s20 42 44 42 42-18 42-42-18-42-42-42z" />
<glyph unicode="&#xe3a5;" glyph-name="blur_on" d="M598 662c36 0 64-28 64-64s-28-64-64-64-64 28-64 64 28 64 64 64zM598 490c36 0 64-28 64-64s-28-64-64-64-64 28-64 64 28 64 64 64zM426 298c24 0 44-18 44-42s-20-42-44-42-42 18-42 42 18 42 42 42zM426 662c36 0 64-28 64-64s-28-64-64-64-64 28-64 64 28 64 64 64zM598 150c12 0 20-10 20-22s-8-22-20-22-22 10-22 22 10 22 22 22zM598 298c24 0 42-18 42-42s-18-42-42-42-44 18-44 42 20 42 44 42zM896 448c12 0 22-10 22-22s-10-20-22-20-22 8-22 20 10 22 22 22zM768 810c24 0 42-18 42-42s-18-42-42-42-42 18-42 42 18 42 42 42zM768 640c24 0 42-18 42-42s-18-44-42-44-42 20-42 44 18 42 42 42zM768 298c24 0 42-18 42-42s-18-42-42-42-42 18-42 42 18 42 42 42zM768 470c24 0 42-20 42-44s-18-42-42-42-42 18-42 42 18 44 42 44zM426 490c36 0 64-28 64-64s-28-64-64-64-64 28-64 64 28 64 64 64zM426 726c-24 0-42 18-42 42s18 42 42 42 44-18 44-42-20-42-44-42zM426 874c-12 0-20 10-20 22s8 22 20 22 22-10 22-22-10-22-22-22zM426 150c12 0 22-10 22-22s-10-22-22-22-20 10-20 22 8 22 20 22zM128 448c12 0 22-10 22-22s-10-20-22-20-22 8-22 20 10 22 22 22zM598 874c-12 0-22 10-22 22s10 22 22 22 20-10 20-22-8-22-20-22zM598 726c-24 0-44 18-44 42s20 42 44 42 42-18 42-42-18-42-42-42zM896 576c-12 0-22 10-22 22s10 20 22 20 22-8 22-20-10-22-22-22zM256 810c24 0 42-18 42-42s-18-42-42-42-42 18-42 42 18 42 42 42zM128 618c12 0 22-8 22-20s-10-22-22-22-22 10-22 22 10 20 22 20zM256 640c24 0 42-18 42-42s-18-44-42-44-42 20-42 44 18 42 42 42zM256 298c24 0 42-18 42-42s-18-42-42-42-42 18-42 42 18 42 42 42zM256 470c24 0 42-20 42-44s-18-42-42-42-42 18-42 42 18 44 42 44z" />
<glyph unicode="&#xe3a6;" glyph-name="brightness_1" d="M86 512c0 236 190 426 426 426s426-190 426-426-190-426-426-426-426 190-426 426z" />
<glyph unicode="&#xe3a7;" glyph-name="brightness_2" d="M426 938c236 0 428-190 428-426s-192-426-428-426c-78 0-150 20-212 56 128 74 212 212 212 370s-84 296-212 370c62 36 134 56 212 56z" />
<glyph unicode="&#xe3a8;" glyph-name="brightness_3" d="M384 938c236 0 426-190 426-426s-190-426-426-426c-44 0-88 6-128 18 174 54 298 216 298 408s-124 354-298 408c40 12 84 18 128 18z" />
<glyph unicode="&#xe3a9;" glyph-name="brightness_4" d="M512 256c142 0 256 114 256 256s-114 256-256 256c-38 0-74-10-106-24 88-40 148-128 148-232s-60-192-148-232c32-14 68-24 106-24zM854 654l140-142-140-142v-200h-200l-142-140-142 140h-200v200l-140 142 140 142v200h200l142 140 142-140h200v-200z" />
<glyph unicode="&#xe3ad;" glyph-name="broken_image" d="M768 536l128-128v-194c0-46-40-86-86-86h-596c-46 0-86 40-86 86v280l128-128 170 172 172-172zM896 810v-280l-128 128-170-172-172 172-170-172-128 130v194c0 46 40 86 86 86h596c46 0 86-40 86-86z" />
<glyph unicode="&#xe3ae;" glyph-name="brush" d="M884 826c16-16 16-44 0-60l-382-382-118 118 382 382c16 16 44 16 60 0zM298 426c70 0 128-58 128-128 0-94-76-170-170-170-64 0-130 34-170 86 36 0 84 28 84 84 0 70 58 128 128 128z" />
<glyph unicode="&#xe3af;" glyph-name="camera" d="M420 96c68.709 118.625 136.494 238.172 206 356l156-270c-74-60-168-96-270-96-32 0-62 4-92 10zM104 384h414l-158-270c-122 46-216 146-256 270zM198 800c71.999-124.667 143.587-249.746 216-374h-320c-6 28-8 56-8 86 0 112 42 212 112 288zM930 598c6-28 8-56 8-86 0-112-42-212-112-288l-204 352-12 22h320zM920 640h-414l158 270c122-46 216-146 256-270zM402 576l-4-4-156 270c74 60 168 96 270 96 32 0 62-4 92-10z" />
<glyph unicode="&#xe3b1;" glyph-name="camera_front" d="M298 938v-448c0 72 142 108 214 108s214-36 214-108v448h-428zM726 1024c46 0 84-40 84-86v-596c0-46-38-86-84-86h-300l128-128-128-128v86h-212v84h212v86h-128c-46 0-84 40-84 86v596c0 46 38 86 84 86h428zM512 682c-46 0-84 40-84 86s38 86 84 86 86-40 86-86-40-86-86-86zM598 170h212v-84h-212v84z" />
<glyph unicode="&#xe3b2;" glyph-name="camera_rear" d="M512 768c46 0 84 40 84 86s-38 84-84 84-86-38-86-84 38-86 86-86zM726 1024c46 0 84-40 84-86v-596c0-46-38-86-84-86h-300l128-128-128-128v86h-212v84h212v86h-128c-46 0-84 40-84 86v596c0 46 38 86 84 86h428zM598 170h212v-84h-212v84z" />
<glyph unicode="&#xe3b3;" glyph-name="camera_roll" d="M854 640v86h-86v-86h86zM854 256v86h-86v-86h86zM682 640v86h-84v-86h84zM682 256v86h-84v-86h84zM512 640v86h-86v-86h86zM512 256v86h-86v-86h86zM598 810h340v-640h-340c0-46-40-84-86-84h-342c-46 0-84 38-84 84v640c0 46 38 86 84 86h44v42c0 24 18 44 42 44h170c24 0 44-20 44-44v-42h42c46 0 86-40 86-86z" />
<glyph unicode="&#xe3b4;" glyph-name="center_focus_strong" d="M810 214v170h86v-170c0-46-40-86-86-86h-170v86h170zM810 896c46 0 86-40 86-86v-170h-86v170h-170v86h170zM214 810v-170h-86v170c0 46 40 86 86 86h170v-86h-170zM214 384v-170h170v-86h-170c-46 0-86 40-86 86v170h86zM512 682c94 0 170-76 170-170s-76-170-170-170-170 76-170 170 76 170 170 170z" />
<glyph unicode="&#xe3b5;" glyph-name="center_focus_weak" d="M512 426c46 0 86 40 86 86s-40 86-86 86-86-40-86-86 40-86 86-86zM512 682c94 0 170-76 170-170s-76-170-170-170-170 76-170 170 76 170 170 170zM810 214v170h86v-170c0-46-40-86-86-86h-170v86h170zM810 896c46 0 86-40 86-86v-170h-86v170h-170v86h170zM214 810v-170h-86v170c0 46 40 86 86 86h170v-86h-170zM214 384v-170h170v-86h-170c-46 0-86 40-86 86v170h86z" />
<glyph unicode="&#xe3b8;" glyph-name="colorize" d="M296 214l344 344-82 82-344-344zM884 784c16-16 18-42 0-60l-134-134 82-82-60-60-60 60-382-380h-202v202l380 382-60 60 60 60 82-82 134 134c16 16 44 16 60 0z" />
<glyph unicode="&#xe3b9;" glyph-name="compare" d="M810 896c46 0 86-40 86-86v-596c0-46-40-86-86-86h-212v384l212-256v554h-212v86h212zM426 256v256l-212-256h212zM426 896v86h86v-940h-86v86h-212c-46 0-86 40-86 86v596c0 46 40 86 86 86h212z" />
<glyph unicode="&#xe3ba;" glyph-name="control_point" d="M512 170c188 0 342 154 342 342s-154 342-342 342-342-154-342-342 154-342 342-342zM512 938c236 0 426-190 426-426s-190-426-426-426-426 190-426 426 190 426 426 426zM554 726v-172h172v-84h-172v-172h-84v172h-172v84h172v172h84z" />
<glyph unicode="&#xe3bb;" glyph-name="control_point_duplicate" d="M640 214c164 0 298 134 298 298s-134 298-298 298-298-134-298-298 134-298 298-298zM640 896c212 0 384-172 384-384s-172-384-384-384-384 172-384 384 172 384 384 384zM86 512c0-120 68-222 170-270v-92c-148 52-256 196-256 362s108 310 256 362v-92c-102-48-170-150-170-270zM682 682v-128h128v-84h-128v-128h-84v128h-128v84h128v128h84z" />
<glyph unicode="&#xe3bc;" glyph-name="crop_16_9" d="M810 342v340h-596v-340h596zM810 768c46 0 86-40 86-86v-340c0-46-40-86-86-86h-596c-46 0-86 40-86 86v340c0 46 40 86 86 86h596z" />
<glyph unicode="&#xe3bd;" glyph-name="crop_3_2" d="M810 256v512h-596v-512h596zM810 854c46 0 86-40 86-86v-512c0-46-40-86-86-86h-596c-46 0-86 40-86 86v512c0 46 40 86 86 86h596z" />
<glyph unicode="&#xe3be;" glyph-name="crop" d="M298 298h684v-84h-172v-172h-84v172h-428c-46 0-84 38-84 84v428h-172v84h172v172h84v-684zM726 384v342h-342v84h342c46 0 84-38 84-84v-342h-84z" />
<glyph unicode="&#xe3c0;" glyph-name="crop_7_5" d="M810 384v256h-596v-256h596zM810 726c46 0 86-40 86-86v-256c0-46-40-86-86-86h-596c-46 0-86 40-86 86v256c0 46 40 86 86 86h596z" />
<glyph unicode="&#xe3c1;" glyph-name="crop_din" d="M810 214v596h-596v-596h596zM810 896c46 0 86-40 86-86v-596c0-46-40-86-86-86h-596c-46 0-86 40-86 86v596c0 46 40 86 86 86h596z" />
<glyph unicode="&#xe3c2;" glyph-name="crop_free" d="M810 896c46 0 86-40 86-86v-170h-86v170h-170v86h170zM810 214v170h86v-170c0-46-40-86-86-86h-170v86h170zM214 384v-170h170v-86h-170c-46 0-86 40-86 86v170h86zM128 810c0 46 40 86 86 86h170v-86h-170v-170h-86v170z" />
<glyph unicode="&#xe3c3;" glyph-name="crop_landscape" d="M810 298v428h-596v-428h596zM810 810c46 0 86-38 86-84v-428c0-46-40-84-86-84h-596c-46 0-86 38-86 84v428c0 46 40 84 86 84h596z" />
<glyph unicode="&#xe3c4;" glyph-name="crop_original" d="M596 500l150-202h-468l116 152 84-102zM810 214v596h-596v-596h596zM810 896c46 0 86-40 86-86v-596c0-46-40-86-86-86h-596c-46 0-86 40-86 86v596c0 46 40 86 86 86h596z" />
<glyph unicode="&#xe3c5;" glyph-name="crop_portrait" d="M726 214v596h-428v-596h428zM726 896c46 0 84-40 84-86v-596c0-46-38-86-84-86h-428c-46 0-84 40-84 86v596c0 46 38 86 84 86h428z" />
<glyph unicode="&#xe3c6;" glyph-name="crop_square" d="M768 256v512h-512v-512h512zM768 854c46 0 86-40 86-86v-512c0-46-40-86-86-86h-512c-46 0-86 40-86 86v512c0 46 40 86 86 86h512z" />
<glyph unicode="&#xe3c7;" glyph-name="dehaze" d="M86 790h852v-86h-852v86zM86 576h852v-86h-852v86zM86 362h852v-84h-852v84z" />
<glyph unicode="&#xe3c8;" glyph-name="details" d="M272 768l240-426 240 426h-480zM128 854h768l-384-684z" />
<glyph unicode="&#xe3ca;" glyph-name="exposure" d="M854 170v684l-684-684h684zM214 810v-84h256v84h-256zM854 938c46 0 84-38 84-84v-684c0-46-38-84-84-84h-684c-46 0-84 38-84 84v684c0 46 38 84 84 84h684zM640 298h-86v86h86v86h86v-86h84v-86h-84v-84h-86v84z" />
<glyph unicode="&#xe3cb;" glyph-name="exposure_neg_1" d="M810 256h-84v454l-128-44v72l200 72h12v-554zM170 554h342v-84h-342v84z" />
<glyph unicode="&#xe3cc;" glyph-name="exposure_neg_2" d="M86 554h340v-84h-340v84zM702 810c103.361 0 172-46.875 172-150 0-16-2-34-8-50s-12-34-22-50c-21.913-35.061-50.22-70.22-80-100l-122-132h254v-72h-368v64l178 194c27.051 27.051 44.466 50.776 62 80 10.155 16.925 14 31.054 14 56 0 12 0 26-4 36-11.918 29.795-34.301 52-76 52-60.876 0-92-36.935-92-98h-92c0 51.336 20.69 92.69 48 120 31.385 31.385 73.692 50 136 50z" />
<glyph unicode="&#xe3cd;" glyph-name="exposure_plus_1" d="M854 256h-86v454l-128-44v72l200 72h14v-554zM426 726v-172h172v-84h-172v-172h-84v172h-172v84h172v172h84z" />
<glyph unicode="&#xe3ce;" glyph-name="exposure_plus_2" d="M342 726v-172h170v-84h-170v-172h-86v172h-170v84h170v172h86zM684 328h254v-72h-368v64l178 194c27.051 27.051 44.466 50.776 62 80 9.657 16.095 16 33.377 16 56 0 27.976-9.972 45.963-22 62-12.776 17.035-30.076 26-60 26-30.802 0-54.673-12.673-70-28-13.992-13.992-22-43.42-22-70h-92c0 51.336 20.69 92.69 48 120 16 16 34 30 58 38s50 12 80 12c28 0 50-4 72-10 20-8 40-16 54-30 26.805-22.976 46-61.985 46-110 0-40.444-14.717-72.348-32-100-10-16-20-34-34-50s-30-34-46-50z" />
<glyph unicode="&#xe3cf;" glyph-name="exposure_zero" d="M598 592c0 51.604-2.887 85.33-22 114-8 12-18 18-28 24s-22 8-36 8-26-2-36-8-20-12-28-24c-19.070-28.606-22-62.453-22-114v-114c0-68.64 9.322-117.593 50-142 10-6 22-8 36-8 33.536 0 49.61 12.416 64 34 17.74 26.61 24 68.817 24 116v114h-2zM336 578c0 137.059 42.756 232 176 232 93.018 0 143.69-47.837 164-124 8-30 14-64 14-108v-88h-2c0-79.48-15.373-138.051-48-180-16-18-34-34-56-42s-46-12-72-12-50 4-72 12-40 24-56 42c-34.893 39.254-48 102.511-48 180v88z" />
<glyph unicode="&#xe3d0;" glyph-name="filter_1" d="M896 298v598h-598v-598h598zM896 982c46 0 86-40 86-86v-598c0-46-40-84-86-84h-598c-46 0-84 38-84 84v598c0 46 38 86 84 86h598zM598 384v342h-86v84h170v-426h-84zM128 810v-682h682v-86h-682c-46 0-86 40-86 86v682h86z" />
<glyph unicode="&#xe3d1;" glyph-name="filter_2" d="M726 470v-86h-256v170c0 48 38 86 84 86h86v86h-170v84h170c46 0 86-36 86-84v-86c0-48-40-86-86-86h-86v-84h172zM896 298v598h-598v-598h598zM896 982c46 0 86-40 86-86v-598c0-46-40-84-86-84h-598c-46 0-84 38-84 84v598c0 46 38 86 84 86h598zM128 810v-682h682v-86h-682c-46 0-86 40-86 86v682h86z" />
<glyph unicode="&#xe3d2;" glyph-name="filter_3" d="M726 470c0-48-40-86-86-86h-170v86h170v84h-86v86h86v86h-170v84h170c46 0 86-36 86-84v-64c0-36-28-64-64-64 36 0 64-28 64-64v-64zM128 810v-682h682v-86h-682c-46 0-86 40-86 86v682h86zM896 298v598h-598v-598h598zM896 982c46 0 86-40 86-86v-598c0-46-40-84-86-84h-598c-46 0-84 38-84 84v598c0 46 38 86 84 86h598z" />
<glyph unicode="&#xe3d3;" glyph-name="filter" d="M896 298v598h-598v-598h598zM896 982c46 0 86-40 86-86v-598c0-46-40-84-86-84h-598c-46 0-84 38-84 84v598c0 46 38 86 84 86h598zM128 810v-682h682v-86h-682c-46 0-86 40-86 86v682h86zM680 584l152-200h-470l118 150 84-100z" />
<glyph unicode="&#xe3d4;" glyph-name="filter_4" d="M896 298v598h-598v-598h598zM896 982c46 0 86-40 86-86v-598c0-46-40-84-86-84h-598c-46 0-84 38-84 84v598c0 46 38 86 84 86h598zM640 384v170h-170v256h84v-170h86v170h86v-426h-86zM128 810v-682h682v-86h-682c-46 0-86 40-86 86v682h86z" />
<glyph unicode="&#xe3d5;" glyph-name="filter_5" d="M726 470c0-48-40-86-86-86h-170v86h170v84h-170v256h256v-84h-172v-86h86c46 0 86-38 86-86v-84zM128 810v-682h682v-86h-682c-46 0-86 40-86 86v682h86zM896 298v598h-598v-598h598zM896 982c46 0 86-40 86-86v-598c0-46-40-84-86-84h-598c-46 0-84 38-84 84v598c0 46 38 86 84 86h598z" />
<glyph unicode="&#xe3d6;" glyph-name="filter_6" d="M554 554v-84h86v84h-86zM554 384c-46 0-84 38-84 86v256c0 48 38 84 84 84h172v-84h-172v-86h86c46 0 86-38 86-86v-84c0-48-40-86-86-86h-86zM896 298v598h-598v-598h598zM896 982c46 0 86-40 86-86v-598c0-46-40-84-86-84h-598c-46 0-84 38-84 84v598c0 46 38 86 84 86h598zM128 810v-682h682v-86h-682c-46 0-86 40-86 86v682h86z" />
</font>
</defs>
</svg>
